#TITLE:Vertex BETA;
#SUBTITLE:vROFL;
#ARTIST:Silvia;
#TITLETRANSLIT:;
#SUBTITLETRANSLIT:;
#ARTISTTRANSLIT:;
#CREDIT:Dark Bahamut;
#BANNER:Vertex BETA vROFL-bn.png;
#BACKGROUND:Vertex BETA vROFL-bg.png;
#LYRICSPATH:;
#CDTITLE:dark.gif;
#MUSIC:Vertex BETA vROFL.mp3;
#OFFSET:-1.400;
#SAMPLESTART:98.540;
#SAMPLELENGTH:19.140;
#SELECTABLE:YES;
#BPMS:0.000=56.278,3.744=66.700,84.990=200.100,85.003=133.400,86.656=75.037,86.665=100.050,86.667=112.556;
#STOPS:;
#BGCHANGES:;
// cache tags:
#FIRSTBEAT:0.000;
#LASTBEAT:278.000;
#SONGFILENAME:Songs/nhac/Vertex BETA vROFL/Vertex BETA vROFL.sm;
#HASMUSIC:1;
#HASBANNER:1;
#MUSICLENGTH:184.404;
// end cache tags

//---------------dance-single - Experte----------------
#NOTES:
     dance-single:
     Experte:
     Challenge:
     40:
     1.000,1.000,1.000,1.000,1.000,2917.000,1388.000,302.000,0.000,623.000:
3333
0000
0000
0111
0000
0000
1110
0000
0000
1101
0000
0000
0111
0000
0000
1101
0000
0000
1011
0000
0000
1101
0000
0000
3333
0000
0000
0111
0000
0000
1110
0000
0000
0111
0000
0000
3333
0000
0000
1011
0000
0000
1110
0000
0000
0111
0000
0000
3333
0000
0000
1101
0000
0000
1110
0000
0000
1011
0000
0000
0111
0000
0000
1101
,
0000
0000
0000
0000
0000
0000
1110
0000
0000
0000
0000
0000
0000
0000
0000
0111
0000
0000
0000
0000
0000
0000
0000
0000
3333
0000
0000
0000
0000
0000
0000
0000
0000
1011
0000
0000
0000
0000
0000
0000
0000
0000
1110
0000
0000
0000
0000
0000
1101
0000
0000
0000
0000
2222
3333
0000
0000
1011
0000
0000
0000
0000
1101
0000
0000
0000
0111
0000
0000
0000
0000
2222
3333
0000
0000
1110
0000
0000
0000
0000
1011
0000
0000
0000
1101
0000
0000
0000
0000
0111
0000
0000
0000
1011
0000
0000
0000
0000
1101
0000
0000
0000
1110
0000
0000
0000
0000
2222
3333
0000
0000
0111
0000
0000
0000
0000
1110
0000
0000
0000
1101
0000
0000
0000
0000
2222
3333
0000
0000
1110
0000
0000
0000
0000
0111
0000
0000
0000
1011
0000
0000
0000
0000
2222
3333
0000
0000
1011
0000
0000
0000
0000
1101
0000
0000
0000
0111
0000
0000
0000
0000
1011
0000
0000
0000
1110
0000
0000
0000
0000
2222
3333
0000
0000
2222
3333
0000
0000
0000
2222
3333
0000
0000
1101
0000
0000
0000
0000
1011
0000
0000
0000
,
1110
0000
0000
0000
0000
1101
0000
0000
0000
0111
0000
0000
0000
0000
1110
0000
0000
0000
1011
0000
0000
0000
0000
2222
3333
0000
0000
1101
0000
0000
0000
0000
0111
0000
0000
0000
1110
0000
0000
0000
0000
1011
0000
0000
0000
1110
0000
0000
0000
0000
0111
0000
0000
0000
1011
0000
0000
0000
0000
2222
3333
0000
0000
1101
0000
0000
0000
0000
1110
0000
0000
0000
1011
0000
0000
0000
0000
2222
3333
0000
0000
1101
0000
0000
0000
0000
0111
0000
0000
0000
1110
0000
0000
0000
0000
2222
3333
0000
0000
1011
0000
0000
0000
0000
1110
0000
0000
0000
1101
0000
0000
0000
0000
1011
0000
0000
0000
0111
0000
0000
0000
0000
1011
0000
0000
0000
1101
0000
0000
0000
0000
2222
3333
0000
0000
1110
0000
0000
0000
0000
1011
0000
0000
0000
1101
0000
0000
0000
0000
2222
3333
0000
0000
0111
0000
0000
0000
0000
1110
0000
0000
0000
1011
0000
0000
0000
0000
2222
3333
0000
0000
1101
0000
0000
0000
0000
1110
0000
0000
0000
0111
0000
0000
0000
0000
1101
0000
0000
0000
1011
0000
0000
,
0000
0000
1110
0000
0000
0000
1011
0000
0000
0000
0000
2222
3333
0000
0000
1101
0000
0000
0000
0000
0111
0000
0000
0000
1110
0000
0000
0000
0000
2222
3333
0000
0000
1101
0000
0000
0000
0000
1011
0000
0000
0000
1110
0000
0000
0000
0000
2222
3333
0000
0000
0111
0000
0000
0000
0000
1110
0000
0000
0000
1101
0000
0000
0000
0000
0111
0000
0000
0000
1011
0000
0000
0000
0000
1110
0000
0000
0000
0111
0000
0000
0000
0000
2222
3333
0000
0000
1101
0000
0000
0000
0000
1011
0000
0000
0000
1101
0000
0000
0000
0000
1011
0000
0000
0000
0111
0000
0000
0000
0000
1110
0000
0111
0000
0110
0000
0000
1110
0000
2222
3333
1000
0001
0010
0000
0100
1000
0000
0111
0000
1000
0100
0010
0000
0001
1000
0000
0110
0000
1000
0100
0010
0000
0001
1000
0000
0111
0000
1000
0100
0010
0000
0001
0100
0000
1001
0000
0010
0100
0001
0000
1000
0010
0000
1101
0000
0010
1000
0001
0000
0100
0010
0000
1001
0000
0010
0100
0001
0000
1000
0010
0000
1101
0000
0010
1000
0001
0000
0100
0010
0000
1001
,
0000
0001
0010
1000
0000
0100
0001
0000
1110
0000
0001
0100
1000
0000
0010
0001
0000
1100
0000
0001
0010
1000
0000
0100
0001
0000
1110
0000
0001
0100
1000
0000
0010
0100
0000
0011
0000
1000
0100
0010
0000
0001
1000
0000
0111
0000
1000
0001
0010
0000
0100
1000
0000
0011
0000
1000
0100
0010
0000
0001
1000
0000
0111
0000
1000
0010
0100
0000
0001
0010
0000
0110
0000
0001
1000
0100
0000
0010
0001
0000
1110
0000
0001
0010
0100
0000
1000
0001
0000
0110
0000
0001
1000
0100
0000
0010
0001
0000
1110
0000
0001
0010
0100
0000
1000
0001
0000
0110
0000
0010
1000
0100
0000
0001
0010
0000
1101
0000
0010
0001
0100
0000
1000
0010
0000
0101
0000
0010
1000
0100
0000
0001
0010
0000
1101
0000
0010
0001
0100
0000
1000
0010
0000
0101
0000
1000
0010
0100
0000
0001
1000
0000
0111
0000
1000
0001
0100
0000
0010
1000
0000
0101
0000
1000
0010
0100
0000
0001
1000
0000
0111
0000
1000
0001
0100
0000
0010
1000
0000
1001
0000
0100
0001
1000
0000
0010
0100
0000
1011
0000
0100
0010
,
1000
0000
0001
0100
0000
1010
0000
0100
0001
1000
0000
0010
0100
0000
1011
0000
0100
0010
1000
0000
0001
0100
0000
2222
3333
1000
0100
0010
0000
0001
1000
0000
0111
0000
1000
0100
0010
0000
0001
1000
0000
0110
0000
1000
0100
0010
0000
0001
1000
0000
0111
0000
1000
0100
0010
0000
0001
1000
0000
0011
0000
0100
0001
0010
0000
1000
0100
0000
1011
0000
0100
0001
0010
0000
1000
0100
0000
0011
0000
0100
0001
0010
0000
1000
0100
0000
1011
0000
0100
0001
0010
0000
1000
0100
0000
1001
0000
0010
1000
0100
0000
0001
0010
0000
1101
0000
0010
1000
0100
0000
0001
0010
0000
1001
0000
0010
0001
0100
0000
1000
0010
0000
1101
0000
0010
1000
0001
0000
0100
0010
0000
0011
0000
1000
0010
0001
0000
0100
1000
0000
0111
0000
1000
0100
0001
0000
0010
1000
0000
0101
0000
1000
0000
0010
0000
0100
1000
0000
0111
0000
1000
0000
0001
0000
0010
1000
0000
0110
0000
0001
0100
1000
0000
0001
0010
0000
1101
0000
1000
0100
0010
0000
1000
0001
0000
1100
0000
0010
0100
0001
0000
0010
,
1000
0000
0111
0000
0001
0100
1000
0000
0001
0010
0000
1001
0000
1000
0100
0010
0000
1000
0001
0000
1101
0000
0010
0100
0001
0000
0010
1000
0000
1010
0000
0001
0100
1000
0000
0001
0010
0000
1101
0000
1000
0100
0010
0000
1000
0001
0000
1010
0000
0100
0010
0001
0000
0100
1000
0000
0111
0000
0100
0010
0001
0000
0100
1000
0000
0110
0000
0010
0100
1000
0000
0010
0001
0000
1110
0000
0100
0010
0001
0000
0100
0010
0000
1001
0000
0001
1000
0010
0000
0001
0100
0000
1011
0000
1000
0001
0100
0000
1000
0010
0000
1001
0000
1000
0001
0100
0000
1000
0010
0000
1101
0000
0001
1000
0010
0000
1000
0100
0000
2222
3333
1010
0000
0101
0000
0000
0110
0000
1001
0000
1010
0000
0101
0000
0000
0110
0000
1001
0000
1010
0000
0101
0000
0000
0110
0000
1001
0000
1010
0000
0101
0000
0000
0110
0000
1001
0000
1010
0000
0101
0000
0000
0110
0000
1001
0000
1010
0000
0101
0000
0000
0110
0000
1001
0000
1010
0000
0101
0000
0000
0110
0000
1001
0000
1010
0000
0101
0000
0000
0110
0000
0110
,
0000
0011
0000
0110
0000
0000
1100
0000
0110
0000
0011
0000
0110
0000
0000
1100
0000
0110
0000
0011
0000
0110
0000
0000
1100
0000
0110
0000
0011
0000
0110
0000
0000
1100
0000
0110
0000
0011
0000
0110
0000
0000
1100
0000
0110
0000
0011
0000
0110
0000
0000
1100
0000
0110
0000
0011
0000
0110
0000
0000
1100
0000
0110
0000
0011
0000
0110
0000
0000
1100
0000
0110
0000
0101
0000
1010
0000
0000
1001
0000
0110
0000
0101
0000
1010
0000
0000
1001
0000
0110
0000
0101
0000
1010
0000
0000
1001
0000
0110
0000
0101
0000
1010
0000
0000
1001
0000
0110
0000
0101
0000
1010
0000
0000
1001
0000
0110
0000
0101
0000
1010
0000
0000
1001
0000
0110
0000
0101
0000
1010
0000
0000
1001
0000
0110
0000
0101
0000
1010
0000
0000
1001
0000
0110
0000
0011
0000
1100
0000
0000
0110
0000
1001
0000
0011
0000
1100
0000
0000
0110
0000
1001
0000
0011
0000
1100
0000
0000
0110
0000
1001
0000
0011
0000
1100
0000
0000
0110
0000
1001
0000
0011
0000
1100
0000
0000
0110
0000
1001
0000
0011
0000
,
1100
0000
0000
0110
0000
1111
0000
1111
0000
1111
0000
0000
1111
0000
1111
0000
1111
0000
1111
0000
0000
1111
0000
1111
0000
0100
0000
0011
0000
0000
1000
0000
0111
0000
1000
0000
1100
0000
0000
0001
0000
1110
0000
0001
0000
0011
0000
0000
0010
0000
1101
0000
0010
0000
0101
0000
0000
0100
0000
1011
0000
0100
0000
0011
0000
0000
0001
0000
1110
0000
0001
0000
0110
0000
0000
1000
0000
0111
0000
1000
0000
1010
0000
0000
0010
0000
1101
0000
0010
0000
1100
0000
0000
1000
0000
0111
0000
1000
0000
0110
0000
0000
0001
0000
1110
0000
0001
0000
0011
0000
0000
0100
0000
1011
0000
0100
0000
0011
0000
0000
0010
0000
1101
0000
0010
0000
0011
0000
0000
0100
0000
1011
0000
0100
0000
0011
0000
0000
0001
0000
1110
0000
0001
0000
0011
0000
0000
1000
0000
0111
0000
1000
0000
1100
0000
0000
0010
0000
1101
0000
0010
0000
0011
0000
0000
1000
0000
0111
0000
1000
0000
1100
0000
0000
0001
0000
1110
0000
0001
0000
0011
0000
0000
0100
0000
1011
0000
0100
0000
0011
0000
0000
,
0010
0000
1101
0000
0010
0000
1010
0000
0000
0001
0000
1110
0000
0001
0000
0011
0000
0000
1000
0000
0111
0000
1000
0000
1010
0000
0000
0010
0000
1101
0000
0010
0000
1001
0000
0000
0100
0000
1011
0000
0100
0000
0011
0000
0000
0010
0000
1101
0000
0010
0000
0110
0000
0000
1000
0000
0111
0000
1000
0000
1010
0000
0000
0001
0000
1110
0000
0001
0000
0011
0000
0000
0100
0000
1011
0000
0100
0000
1010
0000
0000
0010
0000
1111
0000
1111
0000
1111
0000
0000
1111
0000
1111
0000
1111
0000
1111
0000
0000
1111
0000
1111
1111
0000
1111
1111
0000
1111
1111
0000
1111
1111
0000
1111
1111
0000
1111
1111
0000
2222
3333
0101
0000
0101
0000
0000
1010
0000
1010
0000
0110
0000
0110
0000
0000
1001
0000
1001
0000
0011
0000
0011
0000
0000
1100
0000
1100
0000
0110
0000
0110
0000
0000
1001
0000
1001
0000
0011
0000
0011
0000
0000
0110
0000
0110
0000
0011
0000
0011
0000
0000
1100
0000
1100
0000
0110
0000
0110
0000
0000
1001
0000
1001
0000
0101
0000
0101
0000
0000
1010
0000
1010
,
0000
0101
0000
1001
0000
0000
0110
0000
1010
0000
0101
0000
1001
0000
0000
0110
0000
1010
0000
0101
0000
1001
0000
0000
0110
0000
1010
0000
0101
0000
1001
0000
0000
0110
0000
1010
0000
0101
0000
1001
0000
0000
0110
0000
1010
0000
0101
0000
1001
0000
0000
0110
0000
1010
0000
0101
0000
1001
0000
0000
0110
0000
1010
0000
0101
0000
1001
0000
0000
0110
0000
0011
0000
0011
0000
1100
0000
0000
1100
0000
0110
0000
0110
0000
1001
0000
0000
1001
0000
0101
0000
0101
0000
1010
0000
0000
1010
0000
0011
0000
0011
0000
1100
0000
0000
1100
0000
0101
0000
0101
0000
1010
0000
0000
1010
0000
1100
0000
1100
0000
0011
0000
0000
0011
0000
0101
0000
0101
0000
1010
0000
0000
1010
0000
0110
0000
0110
0000
1001
0000
0000
1001
0000
0101
0000
1001
0000
1010
0000
0000
1001
0000
0101
0000
1001
0000
1010
0000
0000
1001
0000
1010
0000
1001
0000
0101
0000
0000
1001
0000
1010
0000
1001
0000
0101
0000
0000
1001
0000
0110
0000
1001
0000
0110
0000
0000
1001
0000
1000
0110
1001
0100
,
1011
0100
0010
1001
0100
0010
1001
0100
0000
0011
0000
1000
0100
0010
0001
0000
0110
0000
1111
0000
0000
1111
0000
2222
0333
0010
0000
0101
0000
0010
0001
0100
0010
0001
0100
0000
0011
0000
0100
0010
0001
0100
0010
0001
0000
0110
0000
0001
0100
0010
0001
0100
0010
0000
0101
0000
0010
0001
0100
0010
0001
0100
0000
0011
0000
0100
0010
0001
0100
0010
0001
0000
0110
0000
0001
0100
0010
0001
0100
0010
0000
0101
0000
0010
0001
0100
0010
0001
0100
0000
0011
0000
0100
0010
0001
0222
3033
0001
0000
1010
0000
0001
1000
0010
0001
1000
0010
0000
1001
0000
0010
0001
1000
0010
0001
1000
0000
0011
0000
1000
0010
0001
1000
0010
0001
0000
1010
0000
0001
1000
0010
0001
1000
0010
0000
1001
0000
0010
0001
1000
0010
0001
1000
0000
0011
0000
1000
0010
0001
1000
0010
0001
0000
1010
0000
0001
1000
0010
0001
1000
0010
0000
1001
0000
0010
0001
1000
2022
3303
1000
0000
0101
0000
1000
0100
0001
1000
0100
0001
0000
1100
0000
0001
1000
0100
0001
1000
0100
0000
1001
0000
0100
,
0001
1000
0100
0001
1000
0000
0101
0000
1000
0100
0001
1000
0100
0001
0000
1100
0000
0001
1000
0100
0001
1000
0100
0000
1001
0000
0100
0001
1000
0100
0001
1000
0000
0101
0000
1000
0100
0001
1000
0100
0001
0000
1100
0000
0001
1000
0100
2202
3330
0100
0000
1010
0000
0100
0010
1000
0100
0010
1000
0000
0110
0000
1000
0100
0010
1000
0100
0010
0000
1100
0000
0010
1000
0100
0010
1000
0100
0000
1010
0000
0100
0010
1000
1113
1101
1110
0000
1111
0000
1101
1110
1101
1110
1101
1110
0000
1111
0000
1101
1110
1101
0111
1011
0111
0000
1111
0000
1011
0111
1011
0111
1011
0111
0000
1111
0000
1011
0111
1011
1111
0100
0000
0010
1000
0000
0001
0100
0000
2022
3133
0000
0001
0010
0000
0100
0010
0000
1100
0010
0000
0001
1000
0000
0100
0010
0000
2202
3313
0000
0100
1000
0000
0001
1000
0000
0101
1000
0000
0001
0010
0000
0100
1000
0000
0222
1333
0000
0001
1000
0000
0100
0001
0000
1100
0001
0000
0010
1000
0000
0100
0001
0000
2220
3331
0000
0100
0010
0000
0001
1000
0000
0101
,
1000
0000
0001
0100
0000
1000
0010
0000
2202
3313
0000
0001
1000
0000
0100
0010
0000
1100
0001
0000
0100
1000
0000
0010
0100
0000
2022
3133
0000
0010
1000
0000
0001
0010
0000
0101
1000
0000
0100
0010
0000
0001
1000
0000
0222
1333
0000
0001
0100
0000
0010
0001
0000
1100
0001
0000
0010
0100
0000
1000
0001
0000
2220
3331
0000
0010
1000
0000
0001
0010
0000
0101
1000
0000
0010
1000
0000
0001
0100
0000
2022
3133
0000
1000
0010
0000
0001
0010
0000
1100
0010
0000
0001
0100
0000
1000
0010
0000
2202
3313
0000
0001
1000
0000
0100
0010
0000
0101
1000
0000
0010
0001
0000
0010
1000
0000
0222
1333
0000
0010
0100
0000
0001
0010
0000
1100
0001
0000
0100
0010
0000
1000
0001
0000
2220
3331
0000
0010
1000
0000
0100
1000
0000
0101
0010
0000
0100
1000
0000
0001
0100
0000
2022
3133
0000
0010
1000
0000
0001
0010
0000
1100
0001
0000
0100
0010
0000
0001
0010
0000
2202
3313
0000
1000
0100
0000
0001
1000
0000
0101
1000
0000
0010
1000
0000
0001
1000
0000
0222
1333
0000
0010
,
0100
0000
0010
0001
0000
1100
0010
0000
0100
0010
0000
1000
0110
0001
2000
3110
0001
1000
0100
0000
0010
0001
0000
1001
0100
0000
0010
0100
0000
0001
1000
0000
0222
1333
0000
0010
0100
0000
0001
0010
0000
1100
0010
0000
0001
1000
0000
0100
0001
0000
2220
3331
0000
0100
1000
0000
0010
1000
0000
0101
1000
0000
0010
1000
0000
0001
0010
0000
2202
3313
0000
0001
0100
0000
0010
0001
0000
1100
0001
0000
0010
0100
0000
0001
0100
0000
2022
3133
0000
0001
0010
0000
0001
1000
0000
0101
0010
0000
0001
1000
0000
0010
0001
0000
2220
3331
0000
1000
0010
0000
0100
0001
0000
1100
0001
0000
0010
1000
0000
0001
1000
0000
0222
1333
0000
0001
0100
0000
0010
1000
0000
0101
1000
0000
0001
1000
0000
0010
0100
0000
2022
3133
0000
1000
0010
0000
0001
0010
0000
1100
0001
0000
0100
0010
0000
1000
0010
0000
2202
3313
0000
0001
0100
0000
1000
0110
0001
1000
0110
0001
1000
0100
0000
0010
0001
0000
2220
3331
0000
0010
0100
0000
0001
1000
0000
0011
1000
0000
0100
0001
0000
0010
,
1000
0000
0222
1333
0000
0001
0010
0000
0100
0001
0000
1010
0100
0000
0001
0100
0000
1000
0100
0000
2022
3133
0000
1000
0100
0000
0001
1000
0000
0011
1000
0000
0001
0010
0000
1000
0010
0000
2202
3313
0000
1000
0010
0000
0001
0100
0000
1010
0001
0000
0010
0100
0000
1000
0001
0000
2220
3331
0000
1000
0010
0000
0100
1000
0000
0011
0100
0000
0001
0100
0000
0010
1000
0000
0222
1333
0000
0010
0100
0000
0001
0100
0000
1010
0100
0000
0001
0010
0000
0100
1000
0100
0010
1001
0100
0010
1001
0000
0100
0010
0001
1000
0100
0010
0000
1001
0000
0100
0010
0000
0001
1000
0000
0100
0010
0000
0001
0000
0000
0001
0110
1100
0010
0111
1000
0100
0011
0100
1100
0011
0110
1000
0111
0010
0100
1110
0001
0110
1100
0011
0010
1100
0010
0001
1110
0100
0011
0110
1100
0010
0111
1000
0100
0011
0100
1011
0100
0010
0001
1100
0000
0010
1001
0000
0101
1000
0010
0100
0011
0000
1000
0101
0000
1010
0001
0010
0100
0011
0000
0100
1001
0000
1100
0001
0100
0010
1100
0000
0001
0110
0000
1001
,
0010
0100
1000
0101
0000
0010
1001
0000
0110
1000
0100
0001
1010
0000
0100
1010
0000
1001
0100
0010
0001
1010
0000
0100
1001
0000
0110
0001
0010
1000
0101
0000
0010
1001
0000
0101
1000
0010
0001
1100
0000
0010
0101
0000
0011
0100
0001
1000
0011
0000
0100
0001
0000
1100
0001
0010
0100
0011
0000
1000
0101
0000
1010
0100
0001
0010
1100
0000
0001
1100
0000
1001
0001
1000
0100
1010
0000
0001
1100
0000
0110
0001
1000
0010
0101
0000
1000
0110
0000
1001
0100
1000
0010
0101
0000
1000
0011
0000
0110
1000
0100
0001
1010
0000
1000
0011
0000
1100
0010
1000
0001
1100
0000
0001
1100
0000
0101
0010
1000
0100
0011
0000
1000
0101
0000
1010
0100
0001
1000
0011
0000
1000
0101
0000
0011
0100
1000
0010
1100
0000
0010
1001
0000
0110
0001
0010
0100
1010
0000
0100
0011
0000
1001
0100
0010
1000
0101
0000
0010
1100
0000
0110
0001
1000
0010
0101
0000
0010
1100
0000
1001
0100
1000
0001
1010
0000
0100
1010
0000
0011
0100
0001
1000
0011
0000
0100
0011
0000
1010
0100
0001
0010
,
1100
0000
0001
1010
0000
0101
1000
0010
0001
1100
0000
0001
1010
0000
1100
0010
1000
0100
0011
0000
1000
0101
0000
1001
0100
1000
0010
0101
0000
0010
1001
0000
0110
0001
1000
0100
1010
0000
0001
1010
0000
1111
1111
0000
1111
1111
0000
1111
1111
0000
1111
1111
0000
1111
1111
0000
1111
1111
0000
2222
0333
0001
0100
0110
0000
0001
0100
0000
0011
0000
0010
0100
0011
0000
0001
0100
0000
0110
0000
0100
0001
0110
0000
0010
0001
0000
0110
0000
0100
0001
0110
0000
0100
0001
0000
0222
3330
0010
0100
0110
0000
1000
0100
0000
1010
0000
0010
0100
1010
0000
1000
0010
0000
1100
0000
0100
0010
0110
0000
1000
0100
0000
1010
0000
0010
0100
1010
0000
1000
0100
0000
2220
3033
0010
1000
1010
0000
0001
0010
0000
1010
0000
0010
0001
0011
0000
1000
0001
0000
1010
0000
0010
0001
1010
0000
1000
0001
0000
0011
0000
1000
0001
0011
0000
1000
0001
0000
2022
3303
0100
1000
0101
0000
0001
1000
0000
0101
0000
1000
0001
1100
0000
1000
0001
0000
1100
0000
0100
0001
1001
0000
0100
,
0001
0000
1100
0000
0100
0001
0101
0000
1000
0001
0000
2202
3333
0001
1100
0100
0000
0011
1000
0000
1010
0000
0010
0101
1000
0000
0110
0001
0000
1001
0000
0001
0110
1000
0000
1001
0010
0000
0101
0000
0001
1010
0100
0000
0101
0010
0000
1010
0000
0001
0110
1000
0000
0101
0010
0000
0110
0000
0010
1001
0100
0000
0110
0001
0000
0101
0000
0100
1010
0001
0000
0101
1000
0000
0110
0000
0100
1001
0010
0000
0101
1000
0000
1010
0000
1000
0101
0010
0000
1010
0001
0000
0110
0000
0010
1001
0100
0000
0110
0001
0000
0101
0000
0001
1010
0100
0000
0110
0001
0000
1100
0000
1000
0011
0100
0000
0110
0001
0000
1000
0110
1001
0100
1011
0100
0010
1001
0100
0010
1001
0100
0000
0011
0000
1000
0100
0010
0001
1111
0000
1111
1111
0000
1111
1111
0000
1111
1111
0000
1111
1111
0000
1111
1111
0000
2222
3333
0100
0000
0011
0000
0100
0010
0100
0011
1000
0100
0000
0011
0000
0100
0001
0010
1100
0001
0100
0000
1001
0000
0100
0001
1000
0101
1000
0001
0000
0110
0000
1000
0100
0001
1010
,
0100
1000
0000
0011
0000
0001
1000
0100
0011
1000
0010
0000
1001
0000
0100
0010
0001
1100
0010
0100
0000
0101
0000
0010
1000
0010
0101
1000
0010
0000
1100
0000
0100
0010
0001
1010
0100
1000
0000
0011
0000
0100
1000
0001
1100
0010
0100
0000
1001
0000
0100
0010
0100
0011
1000
0010
0000
0110
0000
0001
1000
0100
1010
0001
0100
0000
1010
0000
0001
0010
1000
0101
0010
0100
0000
1001
0000
0100
0010
0001
1100
0010
1000
0000
0011
0000
0001
0010
1000
0011
0100
0010
0000
0101
0000
0010
1000
0001
1010
0100
1000
0000
0011
0000
0100
1000
0010
0101
0010
1000
0000
0110
0000
0001
1000
0100
0011
1000
0001
0000
1100
0000
0010
0100
0001
1100
0010
0100
0000
1001
0000
0100
0010
1000
0101
0010
1000
0000
0101
0000
0010
0100
0001
1010
0100
1000
0000
0110
0000
0001
1000
0100
0011
1000
0010
0000
0101
0000
0010
1000
0010
1100
0001
1000
0000
0110
0000
0100
1000
0010
0101
1000
0001
0000
1100
0000
0001
0010
0100
1010
0100
0010
0000
1001
0000
0100
0001
0010
1100
0001
0010
0000
,
0110
0000
0001
1000
0100
0011
1000
0100
0000
1010
0000
0001
0010
0001
0110
1000
0100
0000
0011
0000
0100
0010
0100
1001
0010
0100
0000
1010
0000
0001
1000
0001
1111
0000
1111
0000
1111
0000
0000
1111
0000
1111
1111
0000
1111
1111
0000
1111
1111
0000
1111
1111
1111
0000
1111
0000
1111
1111
1111
1111
1001
0000
0110
1001
0000
0110
1001
0000
0110
1001
0000
0110
1001
0000
0110
1001
0000
1001
0110
0000
1001
0110
0000
1001
0110
0000
1001
0110
0000
1001
0110
0000
1001
0110
0000
1111
1010
0000
0101
1010
0000
0101
1010
0000
0101
1010
0000
0101
1010
0000
0101
1010
0000
1010
0101
0000
1010
0101
0000
1010
0101
0000
1010
0101
0000
1010
0101
0000
1010
0101
0000
1111
1100
0000
0011
1100
0000
0011
1100
0000
0011
1100
0000
0011
1100
0000
0011
1100
0000
1100
0011
0000
1100
0011
0000
1100
0011
0000
1100
0011
0000
1100
0011
0000
1100
0011
0000
1111
1001
0000
0110
1001
0000
0110
1001
0000
0110
1001
0000
0110
1001
0000
0110
1001
0000
1001
0110
0000
1001
0110
0000
1001
,
0110
0000
1001
0110
0000
1001
0110
0000
1001
0110
0000
1111
0000
0110
0000
1100
0000
0000
1001
0000
0111
0000
0101
0000
0011
0000
0000
1010
0000
1011
0000
0110
0000
0011
0000
0000
1001
0000
1101
0000
0101
0000
1100
0000
0000
1010
0000
1101
0000
0110
0000
1100
0000
0000
1001
0000
1011
0000
1010
0000
0011
0000
0000
0101
0000
0111
0000
0101
0000
1100
0000
0000
1010
0000
0111
0000
1010
0000
0011
0000
0000
0110
0000
1101
0000
0101
0000
0011
0000
0000
1010
0000
0111
0000
0101
0000
1100
0000
0000
1100
0000
1011
0000
0110
0000
0011
0000
0000
0101
0000
1110
0000
0101
0000
1100
0000
0000
0110
0000
1111
1111
0000
1111
1111
0000
1111
1111
0000
1111
1111
0000
1111
1111
0000
1111
1111
0000
1010
0101
1010
0000
1111
0000
0101
1010
0101
1010
0101
1010
0000
1111
0000
0101
1010
0101
1010
0000
1010
0000
0101
0000
0000
0101
0000
0110
0000
0110
0000
1001
0000
0000
1001
0000
0101
0000
0101
0000
1010
0000
0000
1010
0000
0011
0000
0011
0000
1100
0000
0000
1100
0000
0011
,
0000
0011
0000
0110
0000
0000
0110
0000
1001
0000
1001
0000
0101
0000
0000
0101
0000
1010
0000
1010
0000
0101
0000
0000
0101
0000
0110
0000
0110
0000
1001
0000
0000
1001
0000
1100
0000
0101
0000
1010
0000
0000
0011
0000
1100
0000
0101
0000
1010
0000
0000
0011
0000
1100
0000
0101
0000
1010
0000
0000
0011
0000
1100
0000
0101
0000
1010
0000
0000
0011
0000
1100
0000
0101
0000
1010
0000
0000
0011
0000
1100
0000
0101
0000
1010
0000
0000
0011
0000
1100
0000
0101
0000
1010
0000
0000
0011
0000
1100
0000
0101
0000
1010
0000
0000
0011
0000
1100
0000
1100
0000
0110
0000
0000
0110
0000
1001
0000
1001
0000
0101
0000
0000
0101
0000
1010
0000
1010
0000
0110
0000
0000
0110
0000
1001
0000
1001
0000
0110
0000
0000
0110
0000
0101
0000
0101
0000
1010
0000
0000
1010
0000
0110
0000
0110
0000
1001
0000
0000
1001
0000
0101
0000
0101
0000
0110
0000
0000
0110
0000
1010
0000
1010
0000
0101
0000
0000
0101
0000
1010
0000
0101
0000
0110
0000
0000
1001
0000
1010
0000
0101
0000
,
0110
0000
0000
1001
0000
1010
0000
0101
0000
0110
0000
0000
1001
0000
1010
0000
0101
0000
0110
0000
0000
1001
0000
1010
0000
0101
0000
0110
0000
0000
1001
0000
0001
0110
1001
0010
1101
0010
0100
1001
0010
0100
1001
0010
0000
1100
0000
0001
0010
0100
1000
1111
0000
1111
1111
0000
1111
1111
0000
2222
3330
0100
0000
1100
0000
0010
1000
0100
0010
1000
0100
0000
0110
0000
1000
0010
0100
1000
0010
0100
0000
1100
0000
0010
1000
0100
0010
1000
0100
0000
0110
0000
1000
0010
0100
1000
0010
0100
0000
1100
0000
0010
1000
0100
0010
1000
0100
0000
0110
0000
1000
0010
0100
1000
0010
0100
0000
1100
0000
0010
1000
0100
0010
1000
0100
0000
0110
0000
1000
0010
0100
2220
0333
0001
0000
0110
0000
0001
0010
0100
0001
0010
0100
0000
0011
0000
0100
0010
0001
0100
0010
0001
0000
0110
0000
0001
0010
0100
0001
0010
0100
0000
0011
0000
0100
0010
0001
0100
0010
0001
0000
0110
0000
0001
0010
0100
0001
0010
0100
0000
0011
0000
0100
0010
0001
0100
0010
0001
0000
0110
0000
0001
,
0010
0100
0001
0010
0100
0000
0011
0000
0100
0010
0001
0222
3033
1000
0000
0011
0000
0010
1000
0001
0010
1000
0001
0000
1010
0000
0001
0010
1000
0010
0001
1000
0000
0011
0000
1000
0010
0001
0010
1000
0001
0000
1010
0000
0001
0010
1000
0010
0001
1000
0000
0011
0000
1000
0010
0001
0010
1000
0001
0000
1010
0000
0001
0010
1000
0010
0001
1000
0000
0011
0000
1000
0010
0001
0010
1000
0000
0000
1011
0000
0001
0010
1000
2022
3303
0100
0000
1100
0000
0001
1000
0100
0001
1000
0100
0000
0101
0000
1000
0001
0100
1000
0001
0100
0000
1100
0000
0001
1000
0100
0001
1000
0100
0000
0101
0000
1000
0001
0100
1130
0011
1100
0000
1111
0000
0011
1100
0011
1100
0011
1100
0000
1111
0000
0011
1100
0011
1010
1111
1111
0101
1111
0101
1010
1111
1010
1111
1111
1111
0101
1111
0101
1010
1111
1010
2222
3333
0000
0000
1111
0000
0000
0000
0000
1111
0000
0000
0000
1111
0000
0000
0000
0000
1111
0000
0000
0000
1111
0000
0000
0000
0000
1111
0000
0000
0000
1111
0000
0000
0000
0000
1111
,
0000
0000
0000
1111
0000
0000
0000
0000
1111
0000
0000
0000
1111
0000
0000
0000
0000
1111
0000
0000
0000
1111
0000
0000
0000
0000
1111
0000
0000
0000
1111
0000
0000
0000
0000
1111
0000
0000
0000
1111
0000
0000
0000
0000
1111
0000
0000
0000
1111
0000
0000
0000
0000
1111
0000
0000
0000
1111
0000
0000
0000
0000
1111
0000
0000
0000
1111
0000
0000
0000
0000
1111
0000
0000
0000
1111
0000
0000
0000
0000
1111
0000
0000
0000
1111
0000
0000
0000
0000
1111
0000
0000
0000
1111
0000
0000
0000
0000
1111
0000
0000
0000
1111
0000
0000
0000
0000
1110
0000
0000
0000
1101
0000
0000
0000
0000
1011
0000
0000
0000
0111
0000
0000
0000
0000
1110
0000
0000
0000
0111
0000
0000
0000
0000
1101
0000
0000
0000
1011
0000
0000
0000
0000
0111
0000
0000
0000
1011
0000
0000
0000
0000
1101
0000
0000
0000
1110
0000
0000
0000
0000
0111
0000
0000
0000
1110
0000
0000
0000
0000
1011
0000
0000
0000
1101
0000
0000
0000
0000
1011
0000
0000
0000
1110
0000
0000
0000
0000
0111
0000
0000
0000
,
1101
0000
0000
0000
0000
1011
0000
0000
0000
1101
0000
0000
0000
0000
1110
0000
0000
0000
0111
0000
0000
0000
0000
1101
0000
0000
0000
0111
0000
0000
0000
0000
1110
0000
0000
0000
1011
0000
0000
0000
0000
1101
0000
0000
0000
1011
0000
0000
0000
0000
0111
0000
0000
0000
1110
0000
0000
0000
0000
1100
0000
0000
0000
0110
0000
0000
0000
0000
0011
0000
0000
0000
0110
0000
0000
0000
0000
1010
0000
0000
0000
1001
0000
0000
0000
0000
0101
0000
0000
0000
1001
0000
0000
0000
0000
0011
0000
0000
0000
0110
0000
0000
0000
0000
1100
0000
0000
0000
0110
0000
0000
0000
0000
0101
0000
0000
0000
1001
0000
0000
0000
0000
1010
0000
0000
0000
1001
0000
0000
0000
0000
1010
0000
0000
0000
1001
0000
0000
0000
0000
0101
0000
0000
0000
1001
0000
0000
0000
0000
0011
0000
0000
0000
0110
0000
0000
0000
0000
1100
0000
0000
0000
0110
0000
0000
0000
0000
0101
0000
0000
0000
1001
0000
0000
0000
0000
1010
0000
0000
0000
1001
0000
0000
0000
0000
1100
0000
0000
0000
0110
0000
0000
,
0000
0000
0011
0000
0000
0000
0110
0000
0000
0000
0000
0001
0000
0000
0000
0010
0000
0000
0000
0000
0100
0000
0000
0000
1000
0000
0000
0000
0000
0001
0000
0000
0000
1000
0000
0000
0000
0000
0010
0000
0000
0000
0100
0000
0000
0000
0000
1000
0000
0000
0000
0100
0000
0000
0000
0000
0010
0000
0000
0000
0001
0000
0000
0000
0000
1000
0000
0000
0000
0001
0000
0000
0000
0000
0100
0000
0000
0000
0010
0000
0000
0000
0000
0100
0000
0000
0000
0001
0000
0000
0000
0000
1000
0000
0000
0000
0010
0000
0000
0000
0000
0100
0000
0000
0000
0010
0000
0000
0000
0000
0001
0000
0000
0000
1000
0000
0000
0000
0000
0010
0000
0000
0000
1000
0000
0000
0000
0000
0001
0000
0000
0000
0100
0000
0000
0000
0000
0010
0000
0000
0000
0100
0000
0000
0000
0000
1000
0000
0000
0000
0001
0000
0000
0000
0000
2000
0200
0000
0020
0002
3000
2000
0300
0030
0020
0003
3000
2000
0200
0030
0020
0002
3000
2000
0300
0030
0020
0003
3000
2000
0200
0030
0020
0002
3000
2000
0300
0030
0020
0003
3000
2000
,
0200
0030
0020
0002
3000
2000
0300
0030
0020
0003
3000
2000
0200
0030
0020
0002
3000
2000
0300
0030
0020
0003
3000
2000
0200
0030
0020
0002
3000
2000
0300
0030
0020
0003
3000
2000
0200
0030
0020
0002
3000
2000
0300
0030
0020
0003
3000
2000
0200
0030
0020
0002
3000
2000
0300
0030
0020
0003
3000
2000
0200
0030
0020
0002
3000
2000
0300
0030
0020
0003
3000
2000
0200
0030
0020
0002
3000
2000
0300
0030
0020
0003
3000
2000
0200
0030
0020
0002
3000
2000
0300
0030
0020
0003
3000
2000
0200
0030
0020
0002
3000
2000
0300
0030
0020
0003
0000
3333
3333
0000
0000
0000
0000
0000
0000
0000
0000
0000
0000
0000
0000
0000
0000
0000
0000
0000
0000
0000
0000
0000
0000
0000
0000
0000
0000
0000
0000
0000
0000
0000
0000
0000
0000
0000
0000
0000
0000
0000
0000
0000
0000
0000
0000
0000
0000
0000
0000
0000
0000
0000
0000
0000
0000
0000
0000
0000
0000
0000
0000
0000
0000
0000
0000
0000
0000
0000
0000
0000
0000
0000
0000
0000
0000
0000
0000
0000
0000
0000
0000
0000
0000
0000
;

//---------------dance-single - Schwer----------------
#NOTES:
     dance-single:
     Schwer:
     Hard:
     30:
     1.000,1.000,1.000,0.976,1.000,2558.000,1006.000,180.000,0.000,406.000:
3333
0000
0000
1011
0000
0000
1101
0000
0000
0110
0000
0000
0000
0000
0000
0110
0000
0000
1101
0000
0000
1011
0000
0000
3333
0000
0000
1110
0000
0000
0111
0000
0000
1110
0000
0000
3333
0000
0000
0111
0000
0000
1110
0000
0000
0111
0000
0000
3333
0000
0000
1101
0000
0000
1011
0000
0000
1001
0000
0000
0000
0000
0000
1001
,
0000
0000
0000
0000
0000
0000
1101
0000
0000
0000
0000
0000
0000
0000
0000
1011
0000
0000
0000
0000
0000
0000
0000
0000
3333
0000
0000
0000
0000
0000
0000
0000
0000
1101
0000
0000
0000
0000
0000
0000
0000
0000
1011
0000
0000
0000
0000
0000
1101
0000
0000
0000
0000
2222
3333
0000
0000
1011
0000
0000
0000
0000
1101
0000
0000
0000
1011
0000
0000
0000
0000
2222
3333
0000
0000
1101
0000
0000
0000
0000
1011
0000
0000
0000
0110
0000
0000
0000
0000
0000
0000
0000
0000
0110
0000
0000
0000
0000
1101
0000
0000
0000
1011
0000
0000
0000
0000
2222
3333
0000
0000
1110
0000
0000
0000
0000
0111
0000
0000
0000
1110
0000
0000
0000
0000
2222
3333
0000
0000
0111
0000
0000
0000
0000
1110
0000
0000
0000
0111
0000
0000
0000
0000
2222
3333
0000
0000
1011
0000
0000
0000
0000
1101
0000
0000
0000
1001
0000
0000
0000
0000
0000
0000
0000
0000
1001
0000
0000
0000
0000
2022
3033
0000
0000
2202
3303
0000
0000
0000
2222
3333
0000
0000
1101
0000
0000
0000
0000
1011
0000
0000
0000
,
1010
0000
0000
0000
0000
0111
0000
0000
0000
1010
0000
0000
0000
0000
1110
0000
0000
0000
0111
0000
0000
0000
0000
2222
3333
0000
0000
1101
0000
0000
0000
0000
1011
0000
0000
0000
0110
0000
0000
0000
0000
0000
0000
0000
0000
0110
0000
0000
0000
0000
1101
0000
0000
0000
1011
0000
0000
0000
0000
2222
3333
0000
0000
1110
0000
0000
0000
0000
0111
0000
0000
0000
1110
0000
0000
0000
0000
2222
3333
0000
0000
0111
0000
0000
0000
0000
1110
0000
0000
0000
0111
0000
0000
0000
0000
2222
3333
0000
0000
1011
0000
0000
0000
0000
1101
0000
0000
0000
1001
0000
0000
0000
0000
0000
0000
0000
0000
1001
0000
0000
0000
0000
1011
0000
0000
0000
1101
0000
0000
0000
0000
2222
3333
0000
0000
1011
0000
0000
0000
0000
1101
0000
0000
0000
1101
0000
0000
0000
0000
2222
3333
0000
0000
1101
0000
0000
0000
0000
1011
0000
0000
0000
1101
0000
0000
0000
0000
2222
3333
0000
0000
1011
0000
0000
0000
0000
1101
0000
0000
0000
0110
0000
0000
0000
0000
0000
0000
0000
0000
0110
0000
0000
,
0000
0000
1011
0000
0000
0000
1101
0000
0000
0000
0000
2222
3333
0000
0000
0111
0000
0000
0000
0000
1110
0000
0000
0000
0111
0000
0000
0000
0000
2222
3333
0000
0000
1110
0000
0000
0000
0000
0111
0000
0000
0000
1110
0000
0000
0000
0000
2222
3333
0000
0000
1101
0000
0000
0000
0000
1011
0000
0000
0000
1001
0000
0000
0000
0000
0000
0000
0000
0000
1001
0000
0000
0000
0000
1101
0000
0000
0000
1011
0000
0000
0000
0000
2222
3333
0000
0000
1101
0000
0000
0000
0000
1111
0000
0000
0000
1011
0000
0000
0000
0000
0111
0000
0000
1011
0000
0000
1101
0000
0000
1110
0000
1101
0000
1011
0000
0000
0111
0000
1111
0000
1000
0000
0010
0000
0000
1000
0000
0011
0000
1000
0000
0010
0000
0000
1000
0000
0110
0000
1000
0000
0010
0000
0000
1000
0000
0011
0000
1000
0000
0100
0000
0010
0001
0010
1101
0000
0010
0000
0001
0000
0000
0010
0000
0101
0000
0010
0000
0001
0000
0000
0010
0000
1001
0000
0010
0000
0001
0000
0000
0010
0000
0101
0000
0010
0000
0010
0000
0100
1000
0100
1011
,
0000
0100
0000
1000
0000
0000
0100
0000
1010
0000
0100
0000
1000
0000
0000
0100
0000
1001
0000
0100
0000
1000
0000
0000
0100
0000
1010
0000
0100
0000
1000
0000
0100
0010
0001
1110
0000
0001
0000
0100
0000
0000
0001
0000
1100
0000
0001
0000
0100
0000
0000
0001
0000
0110
0000
0001
0000
0100
0000
0000
0001
0000
1100
0000
0001
0000
0001
0000
0010
0100
1000
0111
0000
1000
0000
0100
0000
0000
1000
0000
0101
0000
1000
0000
0100
0000
0000
1000
0000
0110
0000
1000
0000
0100
0000
0000
1000
0000
0101
0000
1000
0000
1000
0000
0100
0010
0100
1011
0000
0100
0000
0001
0000
0000
0100
0000
0011
0000
0100
0000
0001
0000
0000
0100
0000
1001
0000
0100
0000
0001
0000
0000
0100
0000
0011
0000
0100
0000
0001
0000
0010
0100
0010
1101
0000
0010
0000
1000
0000
0000
0010
0000
1100
0000
0010
0000
1000
0000
0000
0010
0000
1001
0000
0010
0000
1000
0000
0000
0010
0000
1100
0000
0010
0000
1000
0000
0100
0010
0001
1110
0000
0001
0000
0010
0000
0000
0001
0000
1010
0000
0001
0000
,
0010
0000
0000
0001
0000
0110
0000
0001
0000
0010
0000
0000
0001
0000
1010
0000
0001
0000
0010
0000
0100
1000
0000
0111
0000
1000
0000
0100
0000
0000
1000
0000
0101
0000
1000
0000
0100
0000
0000
1000
0000
0110
0000
1000
0000
0100
0000
0000
1000
0000
0101
0000
1000
0000
1000
0000
0100
0010
0100
1011
0000
0100
0000
0001
0000
0000
0100
0000
0011
0000
0100
0000
0001
0000
0000
0100
0000
1001
0000
0100
0000
0001
0000
0000
0100
0000
0011
0000
0100
0000
0001
0000
0010
0100
0010
1101
0000
0010
0000
1000
0000
0000
0010
0000
1100
0000
0010
0000
1000
0000
0000
0010
0000
1001
0000
0010
0000
1000
0000
0000
0010
0000
1100
0000
0010
0000
1000
0000
0100
0010
0001
1110
0000
0001
0000
0010
0000
0000
0001
0000
1010
0000
0001
0000
0010
0000
0000
0001
0000
0110
0000
0001
0000
0010
0000
0000
0001
0000
1010
0000
0001
0000
0001
0000
0010
0100
1000
0111
0000
1000
0000
0010
0000
0000
1000
0000
0011
0000
1000
0000
0010
0000
0000
1000
0000
0110
0000
1000
0000
0010
0000
0000
,
1000
0000
0011
0000
1000
0000
0100
0000
0010
0001
0010
1101
0000
0010
0000
0001
0000
0000
0010
0000
0101
0000
0010
0000
0001
0000
0000
0010
0000
1001
0000
0010
0000
0001
0000
0000
0010
0000
0101
0000
0010
0000
0010
0000
0100
1000
0100
1011
0000
0100
0000
1000
0000
0000
0100
0000
1010
0000
0100
0000
0100
0000
0010
0001
0010
1101
0000
0010
0000
0001
0000
0000
0010
0000
0101
0000
0010
0000
0001
0000
0010
0100
1000
0110
0001
0000
0010
1000
0000
0100
0010
0001
0110
1000
0000
0100
0001
0000
0010
0100
1000
0001
0010
0000
0100
1000
0000
0100
0010
0000
0001
0010
0000
0100
1000
0000
0100
0010
0000
1101
0000
0010
0000
0101
0000
0000
0010
0000
1001
0000
0010
0000
0101
0000
0000
0010
0000
1001
0000
0010
0000
0101
0000
0000
0010
0000
1001
0000
0010
0000
0101
0000
0000
0010
0000
1101
0000
0010
0000
0101
0000
0000
0010
0000
1001
0000
0010
0000
0101
0000
0000
0010
0000
1001
0000
0010
0000
0101
0000
0000
0010
0000
1001
0000
0010
0000
0101
0000
0010
1000
0000
0111
,
0000
0001
0000
0110
0000
0000
1000
0000
0110
0000
0001
0000
0110
0000
0000
1000
0000
0110
0000
0001
0000
0110
0000
0000
1000
0000
0110
0000
0001
0000
0110
0000
0000
1000
0000
0111
0000
0001
0000
0110
0000
0000
1000
0000
0110
0000
0001
0000
0110
0000
0000
1000
0000
0110
0000
0001
0000
0110
0000
0000
1000
0000
0110
0000
0001
0000
0110
0000
1000
0001
0000
1110
0000
0001
0000
1010
0000
0000
0001
0000
0110
0000
0001
0000
1010
0000
0000
0001
0000
0110
0000
0001
0000
1010
0000
0000
0001
0000
0110
0000
0001
0000
1010
0000
0000
0001
0000
1110
0000
0001
0000
1010
0000
0000
0001
0000
0110
0000
0001
0000
1010
0000
0000
0001
0000
0110
0000
0001
0000
1010
0000
0000
0001
0000
0110
0000
0001
0000
1010
0000
0001
0100
0000
1011
0000
0100
0000
1010
0000
0000
0100
0000
1001
0000
0100
0000
1010
0000
0000
0100
0000
1001
0000
0100
0000
1010
0000
0000
0100
0000
1001
0000
0100
0000
1010
0000
0000
0100
0000
1011
0000
0100
0000
1010
0000
0000
0100
0000
1011
0000
0100
0000
,
1010
0000
0100
0100
0000
1011
0000
1011
0000
1110
0000
0000
1110
0000
0111
0000
0111
0000
1101
0000
0000
1101
0000
1111
0000
0100
0000
0011
0000
0000
1000
0000
0101
0000
1000
0000
0110
0000
0000
0001
0000
1010
0000
0001
0000
1100
0000
0000
0010
0000
0101
0000
0010
0000
1001
0000
0000
0100
0000
1011
0000
0100
0000
1010
0000
0000
0001
0000
1100
0000
0001
0000
0110
0000
0000
1000
0000
0011
0000
1000
0000
0101
0000
0000
0010
0000
1100
0000
0010
0000
0101
0000
0010
1000
0000
0111
0000
1000
0000
0110
0000
0000
0001
0000
1100
0000
0001
0000
1010
0000
0000
0100
0000
0011
0000
0100
0000
1001
0000
0000
0010
0000
1100
0000
0010
0000
1001
0000
0010
0100
0000
1011
0000
0100
0000
1010
0000
0000
0001
0000
1100
0000
0001
0000
0110
0000
0000
1000
0000
0011
0000
1000
0000
0101
0000
0000
0010
0000
1001
0000
0010
0000
0101
0000
0010
1000
0000
0111
0000
1000
0000
0110
0000
0000
0001
0000
1100
0000
0001
0000
1010
0000
0000
0100
0000
0011
0000
0100
0000
1001
0000
0000
,
0010
0000
0101
0000
0010
0000
1100
0000
0010
0001
0000
1110
0000
0001
0000
0110
0000
0000
1000
0000
0011
0000
1000
0000
0101
0000
0000
0010
0000
1100
0000
0010
0000
1001
0000
0000
0100
0000
0011
0000
0100
0000
1001
0000
0100
0010
0000
1101
0000
0010
0000
0101
0000
0000
1000
0000
0011
0000
1000
0000
0110
0000
0000
0001
0000
1110
0000
0001
0000
1010
0000
0000
0100
0000
0011
0000
0100
0000
1001
0000
0100
0001
0000
1110
0000
1101
0000
1011
0000
0000
0111
0000
1011
0000
1101
0000
1110
0000
0000
1101
0000
0111
0111
0000
0111
1011
0000
1011
1011
0000
1101
1101
0000
1101
1110
0000
1110
1110
0000
1101
0000
0001
0000
0011
0000
0000
0010
0000
0110
0000
0100
0000
1100
0000
0000
1000
0000
1101
0000
0001
0000
0011
0000
0000
0010
0000
0110
0000
0100
0000
1100
0000
0000
1000
0000
1011
0000
1000
0000
1100
0000
0000
0100
0000
0110
0000
0010
0000
0011
0000
0000
0001
0000
1011
0000
1000
0000
1100
0000
0000
0100
0000
0110
0000
0010
0000
0011
0000
0000
0001
0000
1011
,
0000
0100
0000
1001
0000
0000
0100
0000
1010
0000
0100
0000
1001
0000
0000
0100
0000
1011
0000
0100
0000
1001
0000
0000
0100
0000
1010
0000
0100
0000
1001
0000
0000
0010
0000
1101
0000
0010
0000
1001
0000
0000
0010
0000
0101
0000
0010
0000
1001
0000
0000
0010
0000
1101
0000
0010
0000
1001
0000
0000
0010
0000
0101
0000
0010
0000
1001
0000
0000
0100
0000
1011
0000
1000
0000
1100
0000
0000
0100
0000
0110
0000
0010
0000
0011
0000
0000
0001
0000
1011
0000
1000
0000
1100
0000
0000
0100
0000
0110
0000
0010
0000
0011
0000
0000
0001
0000
1101
0000
0001
0000
0011
0000
0000
0010
0000
0110
0000
0100
0000
1100
0000
0000
1000
0000
1101
0000
0001
0000
0011
0000
0000
0010
0000
0110
0000
0100
0000
1100
0000
0000
1000
0000
1110
0000
1000
0000
1010
0000
0000
0001
0000
0101
0000
1000
0000
1010
0000
0000
0001
0000
1110
0000
1000
0000
0101
0000
0000
0001
0000
1010
0000
1000
0000
0101
0000
0000
0001
0000
0110
0000
1001
0000
0110
0000
0000
1001
0000
1000
0100
0010
0000
,
1001
0000
0100
0010
0000
0001
1000
0000
0100
0010
0000
0001
1000
0000
0100
0010
0000
0001
1000
0000
0100
0010
0001
2222
0333
0000
0010
0100
0000
0001
0010
0000
0100
0001
0000
0010
0100
0000
0001
0010
0000
0100
0001
0000
0010
0100
0000
0001
0010
0000
0100
0001
0000
0010
0100
0000
0001
0010
0000
0100
0001
0000
0010
0100
0000
0001
0010
0000
0100
0001
0000
0010
0100
0000
0001
0010
0000
0100
0001
0000
0010
0100
0000
0001
0010
0000
0100
0001
0000
0010
0100
0000
0001
0010
0000
0222
3033
0000
0001
1000
0000
0010
0001
0000
1000
0010
0000
0001
1000
0000
0010
0001
0000
1000
0010
0000
0001
1000
0000
0010
0001
0000
1000
0010
0000
0001
1000
0000
0010
0001
0000
1000
0010
0000
0001
1000
0000
0010
0001
0000
1000
0010
0000
0001
1000
0000
0010
0001
0000
1000
0010
0000
0001
1000
0000
0010
0001
0000
1000
0010
0000
0001
1000
0000
0010
0001
0000
2022
3303
0000
0100
0001
0000
1000
0100
0000
0001
1000
0000
0100
0001
0000
1000
0100
0000
0001
1000
0000
0100
0001
0000
1000
,
0100
0000
0001
1000
0000
0100
0001
0000
1000
0100
0000
0001
1000
0000
0100
0001
0000
1000
0100
0000
0001
1000
0000
0100
0001
0000
1000
0100
0000
0001
1000
0000
0100
0001
0000
1000
0100
0000
0001
1000
0000
0100
0001
0000
1000
0100
0000
2202
3330
0000
0100
0010
0000
1000
0100
0000
0010
1000
0000
0100
0010
0000
1000
0100
0000
0010
1000
0000
0100
0010
0000
1000
0100
0000
0010
1000
0000
0100
0010
0000
1000
0100
0000
1103
0011
1100
0000
1111
0000
0011
1100
0011
1100
0011
1100
0000
1111
0000
0011
1100
0011
1100
0011
1100
0000
1111
0000
0011
1100
0011
1100
0011
1100
0000
1111
0000
0011
1100
0011
1101
0000
0010
0000
1000
0000
0000
0100
0000
1001
0000
0010
0000
1001
0000
0000
0100
0000
0001
0000
0100
0000
1001
0000
0000
0010
0000
1001
0100
0000
0010
1000
0000
0010
0100
0000
1011
0000
0100
0000
0001
0000
0000
0010
0000
1001
0000
0100
0000
1001
0000
0000
0010
0000
1000
0000
0010
0000
1001
0000
0000
0100
0000
1001
0100
0000
0010
1001
0000
0010
0100
0000
1110
,
0000
0001
0000
0010
0000
0000
1000
0000
0110
0000
0001
0000
0100
0000
0000
1000
0000
0100
0000
1000
0000
0110
0000
0000
0001
0000
0110
1000
0000
0001
0010
0000
0001
1000
0000
0111
0000
1000
0000
0110
0000
0000
0001
0000
0110
0000
1000
0000
0110
0000
0000
0001
0000
0010
0000
0001
0000
0110
0000
0000
1000
0000
0110
1000
0000
0001
0100
0000
0001
1000
0000
0111
0000
1000
0000
0010
0000
0000
0100
0000
0011
0000
1000
0000
0001
0000
0000
0100
0000
0001
0000
0100
0000
0011
0000
0000
1000
0000
0011
0100
0000
1000
0011
0000
1000
0100
0000
1011
0000
0100
0000
0001
0000
0000
1000
0000
0011
0000
0100
0000
0011
0000
0000
1000
0000
0010
0000
1000
0000
0011
0000
0000
0100
0000
0011
1000
0000
0100
0011
0000
0100
0001
0000
1110
0000
0001
0000
1000
0000
0000
0010
0000
1100
0000
0001
0000
0100
0000
0000
0010
0000
0100
0000
0010
0000
1100
0000
0000
0001
0000
1000
0010
0000
0001
1000
0000
0001
0010
0000
1101
0000
0010
0000
0100
0000
0000
0001
0000
0100
0000
0010
0000
,
1100
0000
0000
0001
0000
1000
0000
0001
0000
1100
0000
0000
0001
1000
0100
1000
0001
0000
1000
0000
0100
0010
0000
1101
0000
0100
0000
0001
0000
0000
0010
0000
1001
0000
0100
0000
1000
0000
0000
0010
0000
1001
0000
0010
0000
1001
0000
0000
0100
0000
0001
0010
0000
0100
1001
0000
0100
0010
0000
1101
0000
0010
0000
1000
0000
0000
0100
0000
1001
0000
0010
0000
1001
0000
0000
0100
0000
0001
0000
0100
0000
1001
0000
0000
0010
0000
1001
0100
0000
0010
1000
0000
0010
0100
0000
1011
0000
1000
0000
0100
0000
0000
0001
0000
0110
0000
1000
0000
0110
0000
0000
0001
0000
0010
0000
0001
0000
0110
0000
0000
1000
0000
0110
0001
0000
1000
0100
0000
1000
0001
0000
1110
0000
0001
0000
0110
0000
0000
1000
0000
0110
0000
0001
0000
0110
0000
0000
1000
0000
0010
0000
1000
0000
0110
0000
0000
0001
0000
0110
1000
0000
0100
0010
0000
0001
0010
0100
1011
0000
0001
0000
1000
0000
0000
0100
0000
1010
0000
0001
0000
0010
0000
0000
0100
0000
0010
0000
0100
0000
1010
0000
0000
,
0001
0000
1000
0100
0000
0001
1000
0000
0001
0100
0000
1011
0000
0100
0000
0010
0000
0000
0001
0000
0010
0000
0100
0000
1010
0000
0000
0001
0000
1000
0000
0001
0000
1010
0000
0000
0100
0000
1010
0001
0000
0100
1010
0000
0100
0010
0000
1101
0000
0010
0000
0001
0000
0000
1000
0000
0101
0000
0010
0000
0101
0000
0000
1000
0000
0100
0000
1000
0000
0101
0000
0000
0010
0000
0101
1000
0000
0010
0101
0000
0010
0100
0000
1000
0100
0010
0000
1001
0000
0100
0010
0001
1000
0100
0000
0010
0001
0000
1000
0100
0000
0010
0001
0000
1000
0100
0000
0010
0001
0000
1000
0000
0100
0000
0010
0000
0000
0001
0000
0001
0010
0100
0000
1100
0000
0010
0001
0010
0100
1000
0100
0000
0011
0000
0010
0100
1000
0100
0010
0001
0000
0110
0000
1000
0100
0010
0001
0010
0100
0000
1100
0000
0010
0001
0010
1101
0010
0000
0100
0011
0000
0100
0001
0000
1010
0001
0000
0010
0101
0000
0010
0100
0000
0011
0100
0000
0010
1100
0000
0010
1000
0000
0101
1000
0000
0001
1010
0000
0001
0100
0000
1011
,
0100
0000
1000
0110
0000
1000
0001
0000
1100
0001
0000
0100
0011
0000
0100
1000
0000
0110
1000
0000
0010
1001
0000
0010
1000
0000
0101
1000
0000
0001
1010
0000
0001
0010
0000
1101
0010
0000
0100
1010
0000
0100
0001
0000
1100
0001
0000
1000
0011
0000
1000
0100
0000
1010
0100
0000
0010
0101
0000
0010
1000
0000
0011
1000
0000
0001
1100
0000
0001
1000
0000
0111
1000
0000
0010
1001
0000
0010
1000
0000
0101
1000
0000
0100
1010
0000
0100
0010
0000
1001
0010
0000
0001
0110
0000
0001
1000
0000
0011
1000
0000
0001
1100
0000
0001
0100
0000
1011
0100
0000
0010
1100
0000
0010
1000
0000
0101
1000
0000
0001
1010
0000
0001
0010
0000
1100
0010
0000
0100
0011
0000
0100
0001
0000
1010
0001
0000
1000
0101
0000
1000
0010
0000
1101
0010
0000
1000
0110
0000
1000
0100
0000
0011
0100
0000
0001
1100
0000
0001
1000
0000
0110
1000
0000
0010
1001
0000
0010
0100
0000
1010
0100
0000
1000
0101
0000
1000
0100
0000
1011
0100
0000
0010
0101
0000
0010
1000
0000
0011
1000
0000
0001
,
1100
0000
0001
0010
0000
0101
0010
0000
0100
1010
0000
0100
0001
0000
1100
0001
0000
1000
0011
0000
1000
0001
0000
1110
0001
0000
0100
1001
0000
0100
0001
0000
1010
0001
0000
0010
0101
0000
0010
1000
0000
0111
0111
0000
0111
1011
0000
1011
1011
0000
1101
1101
0000
1101
1110
0000
1110
1110
0000
2222
0333
0000
0001
0100
0000
0001
0010
0000
0101
0010
0000
0001
0100
0000
0001
0010
0000
0101
0010
0000
0001
0100
0000
0001
0010
0000
0101
0010
0000
0001
0100
0000
0001
0010
0000
0222
3330
0000
1000
0010
0000
1000
0100
0000
1010
0100
0000
1000
0010
0000
1000
0100
0000
1010
0100
0000
1000
0010
0000
1000
0100
0000
1010
0100
0000
1000
0010
0000
1000
0100
0000
2220
3033
0000
0001
1000
0000
0001
0010
0000
1001
0010
0000
0001
1000
0000
0001
0010
0000
1001
0010
0000
0001
1000
0000
0001
0010
0000
1001
0010
0000
0001
1000
0000
0001
0010
0000
2022
3303
0000
1000
0001
0000
1000
0100
0000
1001
0100
0000
1000
0001
0000
1000
0100
0000
1001
0100
0000
1000
0001
0000
1000
,
0100
0000
1001
0100
0000
1000
0001
0000
1000
0100
0000
2202
3333
0001
0000
0010
0000
0000
0001
0000
1010
0001
0000
0100
0010
0000
0100
0001
0000
1100
0000
0001
0000
0010
0000
0000
0001
0000
1010
0001
0000
0100
0010
0000
0100
0001
0000
0110
0000
1000
0000
0100
0000
0000
1000
0000
0101
1000
0000
0010
0100
0000
0010
1000
0000
0011
0000
1000
0000
0100
0000
0000
1000
0000
0101
1000
0000
0010
0100
0000
0010
1000
0000
0110
0001
0000
1000
0110
0000
1000
0001
0000
0110
0001
0000
1000
0110
0000
1000
0001
0000
0110
0001
0000
1000
0110
0000
1000
0001
0000
0110
0001
0000
1000
0110
0000
1000
0001
0000
1000
0100
0010
0000
1001
0000
0100
0010
0001
1000
0100
0000
0010
0001
0000
0010
0100
0000
1011
1011
0000
1011
1110
0000
1110
1110
0000
0111
0111
0000
0111
1101
0000
1101
1101
0000
2222
3333
0000
0001
1100
0000
0010
0100
0000
0011
0100
0000
1000
0110
0000
1000
0001
0000
1010
0001
0000
0100
1001
0000
0100
0010
0000
0101
0010
0000
0100
1010
0000
0100
1000
0000
0111
,
1000
0000
0001
0110
0000
0001
0010
0000
1100
0010
0000
0100
0011
0000
0100
1000
0000
0101
1000
0000
0010
1001
0000
0010
0100
0000
1010
0100
0000
0010
0101
0000
0010
0001
0000
1110
0001
0000
1000
0110
0000
1000
0100
0000
0011
0100
0000
0001
1100
0000
0001
0100
0000
1010
0100
0000
0010
1001
0000
0010
1000
0000
0101
1000
0000
0001
1010
0000
0001
0100
0000
1011
0100
0000
1000
0110
0000
1000
0001
0000
1100
0001
0000
1000
0011
0000
1000
0010
0000
0101
0010
0000
0100
1001
0000
0100
0001
0000
1010
0001
0000
1000
0101
0000
1000
0010
0000
1101
0010
0000
0001
0110
0000
0001
1000
0000
0011
1000
0000
0001
1100
0000
0001
0100
0000
1010
0100
0000
0010
1001
0000
0010
1000
0000
0101
1000
0000
0001
1010
0000
0001
0100
0000
1011
0100
0000
1000
0110
0000
1000
0001
0000
1100
0001
0000
0100
0011
0000
0100
0010
0000
0101
0010
0000
0100
1001
0000
0100
0001
0000
1010
0001
0000
1000
0101
0000
1000
0001
0000
1110
0001
0000
1000
0110
0000
1000
0100
0000
0011
0100
0000
0001
,
1100
0000
0001
0100
0000
1010
0100
0000
0010
1001
0000
0010
1000
0000
0101
1000
0000
0001
1010
0000
0001
0100
0000
1011
0100
0000
0001
0110
0000
0001
1000
0000
0111
0000
0000
1011
0000
0000
1101
0000
0000
1110
0000
1101
0000
1011
0000
0000
0111
0000
1011
0000
1101
0000
1110
0000
0000
1101
0000
1111
0000
0110
0000
1001
0000
0000
0110
0000
1001
0110
0000
1001
0110
0000
1001
0110
0000
1001
0000
0110
0000
1001
0000
0000
0110
0000
1001
0110
0000
1001
0110
0000
1001
0110
0000
1111
0000
1010
0000
0101
0000
0000
1010
0000
0101
1010
0000
0101
1010
0000
0101
1010
0000
0101
0000
1010
0000
0101
0000
0000
1010
0000
0101
1010
0000
0101
1010
0000
0101
1010
0000
1111
0000
1100
0000
0011
0000
0000
1100
0000
0011
1100
0000
0011
1100
0000
0011
1100
0000
0011
0000
1100
0000
0011
0000
0000
1100
0000
0011
1100
0000
0011
1100
0000
0011
1100
0000
1111
0000
1001
0000
0110
0000
0000
1001
0000
0110
1001
0000
0110
1001
0000
0110
1001
0000
0110
0000
1001
0000
0110
0000
0000
,
1001
0000
0110
1001
0000
0110
1001
0000
0110
1001
0000
1111
0000
1000
0000
1100
0000
0000
0100
0000
0110
0000
0010
0000
0011
0000
0000
0001
0000
1001
0000
1000
0000
1100
0000
0000
0100
0000
0110
0000
0010
0000
0011
0000
0000
0001
0000
1001
0000
0001
0000
0011
0000
0000
0010
0000
0110
0000
0100
0000
1100
0000
0000
1000
0000
1001
0000
0001
0000
0011
0000
0000
0010
0000
0110
0000
0100
0000
1100
0000
0000
1100
0000
1001
0000
0100
0000
1001
0000
0000
0010
0000
1001
0000
0100
0000
1001
0000
0000
0010
0000
1001
0000
0100
0000
1001
0000
0000
0010
0000
1001
0000
0100
0000
1001
0000
0000
0010
0000
1110
0000
1101
0000
1011
0000
0000
0111
0000
1011
0000
1101
0000
1110
0000
0000
1101
0000
1011
1011
0000
1011
1110
0000
1110
1110
0000
0111
0111
0000
0111
1101
0000
1101
1101
0000
1100
0000
1000
0000
1001
0000
0000
0001
0000
0011
0000
0010
0000
0110
0000
0000
0100
0000
1100
0000
1000
0000
1001
0000
0000
0001
0000
0011
0000
0010
0000
0110
0000
0000
0010
0000
0011
,
0000
0001
0000
1001
0000
0000
1000
0000
1100
0000
0100
0000
0110
0000
0000
0010
0000
0011
0000
0001
0000
1001
0000
0000
1000
0000
1100
0000
0100
0000
0110
0000
0000
0100
0000
1100
0000
0001
0000
1010
0000
0000
0001
0000
1100
0000
0001
0000
1010
0000
0000
0001
0000
1100
0000
0001
0000
1010
0000
0000
0001
0000
1100
0000
0001
0000
1010
0000
0000
0001
0000
1100
0000
0001
0000
1010
0000
0000
0001
0000
1100
0000
0001
0000
1010
0000
0000
0001
0000
1100
0000
0001
0000
1010
0000
0000
0001
0000
1100
0000
0001
0000
1010
0000
0000
0001
0000
1100
0000
1000
0000
1001
0000
0000
0001
0000
0011
0000
0010
0000
0110
0000
0000
0100
0000
1100
0000
1000
0000
1001
0000
0000
0001
0000
0011
0000
0010
0000
0110
0000
0000
0010
0000
0011
0000
0001
0000
1001
0000
0000
1000
0000
1100
0000
0100
0000
0110
0000
0000
0010
0000
0011
0000
0001
0000
1001
0000
0000
1000
0000
1100
0000
0100
0000
0110
0000
0000
0100
0000
1010
0000
0001
0000
0110
0000
0000
0001
0000
1010
0000
0001
0000
,
0110
0000
0000
0001
0000
1010
0000
0001
0000
0110
0000
0000
0001
0000
1010
0000
0001
0000
0110
0000
0000
0001
0000
1010
0000
0001
0000
0110
0000
0000
0001
0000
0001
0010
0100
0000
1001
0000
0010
0100
1000
0001
0010
0000
0100
1000
0000
0001
0010
0000
0100
1000
0000
0001
0010
0000
0100
1000
0000
2222
3330
0000
0100
1000
0000
0100
0010
0000
1000
0100
0000
0010
1000
0000
0100
0010
0000
0100
1000
0000
0010
0100
0000
1000
0010
0000
0100
1000
0000
0100
0010
0000
1000
0100
0000
0010
1000
0000
0100
0010
0000
0100
1000
0000
0010
0100
0000
1000
0010
0000
0100
1000
0000
0100
0010
0000
1000
0100
0000
0010
1000
0000
0100
0010
0000
0100
1000
0000
0010
0100
0000
2220
0333
0000
0010
0001
0000
0010
0100
0000
0001
0010
0000
0100
0001
0000
0010
0100
0000
0010
0001
0000
0100
0010
0000
0001
0100
0000
0010
0001
0000
0010
0100
0000
0001
0010
0000
0100
0001
0000
0010
0100
0000
0010
0001
0000
0100
0010
0000
0001
0100
0000
0010
0001
0000
0010
0100
0000
0001
0010
0000
0100
,
0001
0000
0010
0100
0000
0010
0001
0000
0100
0010
0000
0222
3033
0000
0010
1000
0000
0010
0001
0000
1000
0010
0000
0001
1000
0000
0010
0001
0000
0010
1000
0000
0001
0010
0000
1000
0001
0000
0010
1000
0000
0010
0001
0000
1000
0010
0000
0001
1000
0000
0010
0001
0000
0010
1000
0000
0001
0010
0000
1000
0001
0000
0010
1000
0000
0010
0001
0000
1000
0010
0000
0001
1000
0000
0010
0001
0000
0010
1000
0000
0001
0010
0000
2022
3303
0000
0100
0001
0000
0100
1000
0000
0001
0100
0000
1000
0001
0000
0100
1000
0000
0100
0001
0000
1000
0100
0000
0001
1000
0000
0100
0001
0000
0100
1000
0000
0001
0100
0000
1130
0011
0000
1100
0011
0000
1100
0011
0000
1100
0011
0000
1100
0011
0000
1100
0011
0000
1100
1111
0011
1100
1111
0011
1100
1111
0011
1100
1111
0011
1100
1111
0011
1100
1111
0011
1111
0000
0000
0000
1110
0000
0000
0000
0000
1011
0000
0000
0000
0111
0000
0000
0000
0000
1011
0000
0000
0000
1101
0000
0000
0000
0000
1110
0000
0000
0000
1101
0000
0000
0000
0000
1111
,
0000
0000
0000
0111
0000
0000
0000
0000
1011
0000
0000
0000
1101
0000
0000
0000
0000
1111
0000
0000
0000
1110
0000
0000
0000
0000
1101
0000
0000
0000
1011
0000
0000
0000
0000
1111
0000
0000
0000
0111
0000
0000
0000
0000
1011
0000
0000
0000
1101
0000
0000
0000
0000
1110
0000
0000
0000
1101
0000
0000
0000
0000
1011
0000
0000
0000
0111
0000
0000
0000
0000
1111
0000
0000
0000
1011
0000
0000
0000
0000
1101
0000
0000
0000
1110
0000
0000
0000
0000
1111
0000
0000
0000
1101
0000
0000
0000
0000
1011
0000
0000
0000
0111
0000
0000
0000
0000
1111
0000
0000
0000
1100
0000
0000
0000
0000
0110
0000
0000
0000
0011
0000
0000
0000
0000
0110
0000
0000
0000
0101
0000
0000
0000
0000
1001
0000
0000
0000
1010
0000
0000
0000
0000
1111
0000
0000
0000
0011
0000
0000
0000
0000
0110
0000
0000
0000
1100
0000
0000
0000
0000
1111
0000
0000
0000
1010
0000
0000
0000
0000
1001
0000
0000
0000
0101
0000
0000
0000
0000
1111
0000
0000
0000
0011
0000
0000
0000
0000
0110
0000
0000
0000
,
1100
0000
0000
0000
0000
0110
0000
0000
0000
1010
0000
0000
0000
0000
1001
0000
0000
0000
0101
0000
0000
0000
0000
1111
0000
0000
0000
1100
0000
0000
0000
0000
0110
0000
0000
0000
0011
0000
0000
0000
0000
1001
0000
0000
0000
0101
0000
0000
0000
0000
1001
0000
0000
0000
1010
0000
0000
0000
0000
1111
0000
0000
0000
0110
0000
0000
0000
0000
0011
0000
0000
0000
0110
0000
0000
0000
0000
1010
0000
0000
0000
1001
0000
0000
0000
0000
0101
0000
0000
0000
1001
0000
0000
0000
0000
1111
0000
0000
0000
0110
0000
0000
0000
0000
1100
0000
0000
0000
0110
0000
0000
0000
0000
1111
0000
0000
0000
1001
0000
0000
0000
0000
1010
0000
0000
0000
1001
0000
0000
0000
0000
1111
0000
0000
0000
1001
0000
0000
0000
0000
0101
0000
0000
0000
1001
0000
0000
0000
0000
0011
0000
0000
0000
0110
0000
0000
0000
0000
1100
0000
0000
0000
0110
0000
0000
0000
0000
1111
0000
0000
0000
1001
0000
0000
0000
0000
1010
0000
0000
0000
1001
0000
0000
0000
0000
1111
0000
0000
0000
0110
0000
0000
,
0000
0000
0011
0000
0000
0000
0110
0000
0000
0000
0000
1111
0000
0000
0000
0010
0000
0000
0000
0000
0100
0000
0000
0000
1000
0000
0000
0000
0000
0001
0000
0000
0000
1000
0000
0000
0000
0000
0010
0000
0000
0000
0100
0000
0000
0000
0000
1111
0000
0000
0000
0100
0000
0000
0000
0000
0010
0000
0000
0000
0001
0000
0000
0000
0000
1111
0000
0000
0000
0001
0000
0000
0000
0000
0100
0000
0000
0000
0010
0000
0000
0000
0000
1111
0000
0000
0000
0001
0000
0000
0000
0000
1000
0000
0000
0000
0010
0000
0000
0000
0000
0100
0000
0000
0000
0010
0000
0000
0000
0000
0001
0000
0000
0000
1000
0000
0000
0000
0000
1111
0000
0000
0000
1000
0000
0000
0000
0000
0001
0000
0000
0000
0100
0000
0000
0000
0000
0010
0000
0000
0000
0100
0000
0000
0000
0000
1000
0100
0000
0010
0001
0000
0010
0100
0000
2000
0000
0200
0000
0020
0000
0000
0002
3000
2000
0300
0200
0000
0030
0000
0003
0002
3000
2000
0300
0200
0000
0020
0000
0003
0002
3000
2000
0300
0200
0000
0030
0000
0003
0002
3000
2000
,
0300
0200
0000
0020
0000
0003
0002
3000
2000
0300
0200
0000
0030
0000
0003
0002
3000
2000
0300
0200
0000
0020
0000
0003
0002
3000
2000
0300
0200
0000
0030
0000
0003
0002
3000
2000
0300
0200
0000
0020
0000
0003
0002
3000
2000
0300
0200
0000
0030
0000
0003
0002
3000
2000
0300
0200
0000
0020
0000
0003
0002
3000
2000
0300
0200
0000
0030
0000
0003
0002
3000
2000
0300
0200
0000
0020
0000
0003
0002
3000
2000
0300
0200
0000
0030
0000
0003
0002
3000
2000
0300
0200
0000
0020
0000
0003
0002
3000
2000
0300
0200
0000
0030
0000
0003
0002
3333
2222
3333
0000
0000
0000
0000
0000
0000
0000
0000
0000
0000
0000
0000
0000
0000
0000
0000
0000
0000
0000
0000
0000
0000
0000
0000
0000
0000
0000
0000
0000
0000
0000
0000
0000
0000
0000
0000
0000
0000
0000
0000
0000
0000
0000
0000
0000
0000
0000
0000
0000
0000
0000
0000
0000
0000
0000
0000
0000
0000
0000
0000
0000
0000
0000
0000
0000
0000
0000
0000
0000
0000
0000
0000
0000
0000
0000
0000
0000
0000
0000
0000
0000
0000
0000
;

//---------------dance-single - Mittel----------------
#NOTES:
     dance-single:
     Mittel:
     Medium:
     20:
     1.000,1.000,1.000,0.748,1.000,2049.000,810.000,138.000,0.000,179.000:
0333
0000
0000
0110
0000
0000
0011
0000
0000
0110
0000
0000
0000
0000
0000
1001
0000
0000
0110
0000
0000
1001
0000
0000
3033
0000
0000
1001
0000
0000
1010
0000
0000
1001
0000
0000
3303
0000
0000
1001
0000
0000
0101
0000
0000
1001
0000
0000
3330
0000
0000
0110
0000
0000
0011
0000
0000
0110
0000
0000
0000
0000
0000
1001
,
0000
0000
0000
0000
0000
0000
0110
0000
0000
0000
0000
0000
0000
0000
0000
1001
0000
0000
0000
0000
0000
0000
0000
0000
3303
0000
0000
0000
0000
0000
0000
0000
0000
1001
0000
0000
0000
0000
0000
0000
0000
0000
0101
0000
0000
0000
0000
0000
1001
0000
0000
0000
0000
2022
3033
0000
0000
1001
0000
0000
0000
0000
1010
0000
0000
0000
1001
0000
0000
0000
0000
0222
0333
0000
0000
1001
0000
0000
0000
0000
1010
0000
0000
0000
1001
0000
0000
0000
0000
0000
0000
0000
0000
0110
0000
0000
0000
0000
1001
0000
0000
0000
0110
0000
0000
0000
0000
2022
3033
0000
0000
0110
0000
0000
0000
0000
1100
0000
0000
0000
0110
0000
0000
0000
0000
2202
3303
0000
0000
0110
0000
0000
0000
0000
0011
0000
0000
0000
0110
0000
0000
0000
0000
2220
3330
0000
0000
1001
0000
0000
0000
0000
1010
0000
0000
0000
1001
0000
0000
0000
0000
0000
0000
0000
0000
0110
0000
0000
0000
0000
2002
3003
0000
0000
0220
0330
0000
0000
0000
2002
3003
0000
0000
1001
0000
0000
0000
0000
0110
0000
0000
0000
,
0110
0000
0000
0000
0000
1100
0000
0000
0000
1100
0000
0000
0000
0000
0011
0000
0000
0000
0011
0000
0000
0000
0000
0222
0333
0000
0000
0110
0000
0000
0000
0000
1100
0000
0000
0000
0110
0000
0000
0000
0000
0000
0000
0000
0000
1001
0000
0000
0000
0000
0110
0000
0000
0000
1001
0000
0000
0000
0000
2202
3303
0000
0000
1001
0000
0000
0000
0000
0101
0000
0000
0000
1001
0000
0000
0000
0000
2022
3033
0000
0000
1001
0000
0000
0000
0000
1010
0000
0000
0000
1001
0000
0000
0000
0000
2220
3330
0000
0000
0110
0000
0000
0000
0000
1100
0000
0000
0000
0110
0000
0000
0000
0000
0000
0000
0000
0000
1001
0000
0000
0000
0000
0110
0000
0000
0000
1001
0000
0000
0000
0000
2022
3033
0000
0000
1001
0000
0000
0000
0000
1010
0000
0000
0000
1001
0000
0000
0000
0000
2202
3303
0000
0000
1001
0000
0000
0000
0000
0101
0000
0000
0000
1001
0000
0000
0000
0000
0222
0333
0000
0000
1001
0000
0000
0000
0000
0101
0000
0000
0000
1001
0000
0000
0000
0000
0000
0000
0000
0000
0110
0000
0000
,
0000
0000
1001
0000
0000
0000
0110
0000
0000
0000
0000
2220
3330
0000
0000
0110
0000
0000
0000
0000
0011
0000
0000
0000
0110
0000
0000
0000
0000
2022
3033
0000
0000
0110
0000
0000
0000
0000
1100
0000
0000
0000
0110
0000
0000
0000
0000
2202
3303
0000
0000
1001
0000
0000
0000
0000
0101
0000
0000
0000
1001
0000
0000
0000
0000
0000
0000
0000
0000
0110
0000
0000
0000
0000
1001
0000
0000
0000
0110
0000
0000
0000
0000
0222
0333
0000
0000
0110
0000
0000
0000
0000
1001
0000
0000
0000
1001
0000
0000
0000
0000
1010
0000
0000
1010
0000
0000
1010
0000
0000
0101
0000
0000
0101
0000
0000
0101
0000
0000
1111
0000
0000
0100
0000
0000
1000
0000
0000
0011
0000
0000
1000
0000
0000
0001
0000
0000
0110
0000
0000
0001
0000
0000
0100
0000
0000
0011
0000
0000
0100
0000
0000
0010
0000
0000
1001
0000
0000
0010
0000
0000
1000
0000
0000
0101
0000
0000
1000
0000
0000
0100
0000
0000
1001
0000
0000
0100
0000
0000
0010
0000
0000
1001
0000
0000
0010
0000
0000
0100
0000
0000
1011
,
0000
0000
0100
0000
0000
0001
0000
0000
1010
0000
0000
0001
0000
0000
0010
0000
0000
1001
0000
0000
0010
0000
0000
0100
0000
0000
1010
0000
0000
0100
0000
0000
0001
0000
0000
0110
0000
0000
0001
0000
0000
0010
0000
0000
1100
0000
0000
0010
0000
0000
1000
0000
0000
0110
0000
0000
1000
0000
0000
0001
0000
0000
1100
0000
0000
0001
0000
0000
1000
0000
0000
0111
0000
0000
1000
0000
0000
0010
0000
0000
0101
0000
0000
0010
0000
0000
0001
0000
0000
0110
0000
0000
0001
0000
0000
0010
0000
0000
0101
0000
0000
0010
0000
0000
0100
0000
0000
1001
0000
0000
0100
0000
0000
1000
0000
0000
0011
0000
0000
1000
0000
0000
0010
0000
0000
1001
0000
0000
0010
0000
0000
0100
0000
0000
0011
0000
0000
0100
0000
0000
0010
0000
0000
1101
0000
0000
0010
0000
0000
0001
0000
0000
1100
0000
0000
0001
0000
0000
0100
0000
0000
1001
0000
0000
0100
0000
0000
0010
0000
0000
1100
0000
0000
0010
0000
0000
0001
0000
0000
0110
0000
0000
0001
0000
0000
0100
0000
0000
1010
0000
0000
0100
,
0000
0000
1000
0000
0000
0110
0000
0000
1000
0000
0000
0100
0000
0000
1010
0000
0100
0000
0010
0000
0000
1000
0000
0111
0000
0000
1000
0000
0000
0010
0000
0000
0101
0000
0000
0010
0000
0000
0001
0000
0000
0110
0000
0000
0001
0000
0000
0010
0000
0000
0101
0000
0000
0010
0000
0000
0100
0000
0000
1001
0000
0000
0100
0000
0000
1000
0000
0000
0011
0000
0000
1000
0000
0000
0010
0000
0000
1001
0000
0000
0010
0000
0000
0100
0000
0000
0011
0000
0000
0100
0000
0000
0010
0000
0000
1101
0000
0000
0010
0000
0000
0001
0000
0000
1100
0000
0000
0001
0000
0000
0100
0000
0000
1001
0000
0000
0100
0000
0000
0010
0000
0000
1100
0000
0000
0010
0000
0000
1000
0000
0000
0110
0000
0000
1000
0000
0000
0100
0000
0000
1010
0000
0000
0100
0000
0000
0001
0000
0000
0110
0000
0000
0001
0000
0000
0100
0000
0000
1010
0000
0000
0100
0000
0000
1000
0000
0000
0111
0000
0000
1000
0000
0000
0100
0000
0000
0011
0000
0000
0100
0000
0000
0001
0000
0000
0110
0000
0000
0001
0000
0000
1000
,
0000
0000
0011
0000
0000
1000
0000
0000
0010
0000
0000
1001
0000
0000
0010
0000
0000
1000
0000
0000
0101
0000
0000
1000
0000
0000
0100
0000
0000
1001
0000
0000
0100
0000
0000
0010
0000
0000
0101
0000
0000
0010
0000
0000
0100
0000
0000
1011
0000
0000
0100
0000
0000
0001
0000
0000
1010
0000
0000
0001
0000
0000
0100
0000
0000
1001
0000
0000
0100
0000
0000
0010
0000
0000
0101
0000
0000
0010
0000
0000
1000
0000
0000
0110
0000
1000
0000
0100
0000
0000
0010
0000
0001
0000
0010
0000
0100
0000
0000
1000
0000
0100
0000
0010
0000
0001
0000
0000
0010
0000
0100
0000
1000
0000
0100
0000
0000
0010
0000
1101
0000
0010
0000
0100
0000
0000
0010
0000
1001
0000
0010
0000
0001
0000
0000
0010
0000
1001
0000
0010
0000
0100
0000
0000
0010
0000
1001
0000
0010
0000
0001
0000
0000
0010
0000
1001
0000
0010
0000
0100
0000
0000
0010
0000
1001
0000
0010
0000
0001
0000
0000
0010
0000
1001
0000
0010
0000
0100
0000
0000
0010
0000
1001
0000
0010
0000
0001
0000
0000
1000
0000
0110
,
0000
1000
0000
0010
0000
0000
0001
0000
0110
0000
1000
0000
0100
0000
0000
0001
0000
0110
0000
1000
0000
0010
0000
0000
0001
0000
0110
0000
1000
0000
0100
0000
0000
0001
0000
0110
0000
1000
0000
0010
0000
0000
0001
0000
0110
0000
1000
0000
0100
0000
0000
0001
0000
0110
0000
1000
0000
0010
0000
0000
0001
0000
0110
0000
1000
0000
0100
0000
0000
0001
0000
0110
0000
0001
0000
0010
0000
0000
0001
0000
0110
0000
0001
0000
1000
0000
0000
0001
0000
0110
0000
0001
0000
0010
0000
0000
0001
0000
0110
0000
0001
0000
1000
0000
0000
0001
0000
0110
0000
0001
0000
0010
0000
0000
0001
0000
0110
0000
0001
0000
1000
0000
0000
0001
0000
0110
0000
0001
0000
0010
0000
0000
0001
0000
0110
0000
0001
0000
1000
0000
0000
0100
0000
1001
0000
0100
0000
1000
0000
0000
0100
0000
1001
0000
0100
0000
0010
0000
0000
0100
0000
1001
0000
0100
0000
1000
0000
0000
0100
0000
1001
0000
0100
0000
0010
0000
0000
0100
0000
1001
0000
0100
0000
1000
0000
0000
0100
0000
1001
0000
0100
0000
,
0010
0000
0000
0100
0000
0111
0000
0000
1011
0000
0000
1101
0000
0000
1110
0000
0000
1101
0000
0000
1011
0000
0000
1010
0000
0100
0000
0010
0000
0000
1000
0000
0101
0000
1000
0000
0100
0000
0000
0001
0000
1010
0000
0001
0000
1000
0000
0000
0010
0000
0101
0000
0010
0000
0001
0000
0000
0100
0000
0011
0000
0100
0000
0010
0000
0000
0001
0000
1100
0000
0001
0000
0100
0000
0000
1000
0000
0011
0000
1000
0000
0001
0000
0000
0010
0000
1100
0000
0010
0000
0100
0000
0000
1000
0000
0011
0000
1000
0000
0010
0000
0000
0001
0000
1100
0000
0001
0000
1000
0000
0000
0100
0000
0011
0000
0100
0000
0001
0000
0000
0010
0000
1100
0000
0010
0000
1000
0000
0000
0100
0000
0011
0000
0100
0000
0010
0000
0000
0001
0000
1100
0000
0001
0000
0100
0000
0000
1000
0000
0011
0000
1000
0000
0001
0000
0000
0010
0000
1001
0000
0010
0000
0100
0000
0000
1000
0000
0011
0000
1000
0000
0010
0000
0000
0001
0000
1100
0000
0001
0000
1000
0000
0000
0100
0000
0011
0000
0100
0000
0001
0000
0000
,
0010
0000
0101
0000
0010
0000
1000
0000
0000
0001
0000
1100
0000
0001
0000
0010
0000
0000
1000
0000
0011
0000
1000
0000
0100
0000
0000
0010
0000
1100
0000
0010
0000
1000
0000
0000
0100
0000
0011
0000
0100
0000
0000
0000
0000
0010
0000
1100
0000
0010
0000
0100
0000
0000
1000
0000
0011
0000
1000
0000
0010
0000
0000
0001
0000
1100
0000
0001
0000
1000
0000
0000
0100
0000
0011
0000
0100
0000
0010
0000
0000
0001
0000
1110
0000
0000
1101
0000
0000
1011
0000
0000
0111
0000
0000
1011
0000
0000
1101
0000
0000
1110
0000
1110
0000
1101
0000
0000
1101
0000
1011
0000
1011
0000
0111
0000
0000
0111
0000
1111
0000
0001
0000
0010
0000
0000
0010
0000
0110
0000
0100
0000
1000
0000
0000
1000
0000
1001
0000
0001
0000
0010
0000
0000
0010
0000
0110
0000
0100
0000
1000
0000
0000
1000
0000
1001
0000
1000
0000
0100
0000
0000
0100
0000
0110
0000
0010
0000
0001
0000
0000
0001
0000
1001
0000
1000
0000
0100
0000
0000
0100
0000
0110
0000
0010
0000
0001
0000
0000
0001
0000
1010
,
0000
0100
0000
1000
0000
0000
0100
0000
1010
0000
0100
0000
0001
0000
0000
0100
0000
1010
0000
0100
0000
1000
0000
0000
0100
0000
1010
0000
0100
0000
0001
0000
0000
0010
0000
0101
0000
0010
0000
1000
0000
0000
0010
0000
0101
0000
0010
0000
0001
0000
0000
0010
0000
0101
0000
0010
0000
1000
0000
0000
0010
0000
0101
0000
0010
0000
0001
0000
0000
0100
0000
1001
0000
1000
0000
0100
0000
0000
0100
0000
0110
0000
0010
0000
0001
0000
0000
0001
0000
1001
0000
1000
0000
0100
0000
0000
0100
0000
0110
0000
0010
0000
0001
0000
0000
0001
0000
1001
0000
0001
0000
0010
0000
0000
0010
0000
0110
0000
0100
0000
1000
0000
0000
1000
0000
1001
0000
0001
0000
0010
0000
0000
0010
0000
0110
0000
0100
0000
1000
0000
0000
1000
0000
0110
0000
1000
0000
0010
0000
0000
0001
0000
0101
0000
1000
0000
1000
0000
0000
0001
0000
0110
0000
1000
0000
0100
0000
0000
0001
0000
1010
0000
1000
0000
0001
0000
0000
0001
0000
0001
0000
0000
0010
0000
0000
0100
0000
0000
1000
0000
0100
0000
,
0010
0000
0000
0001
0000
1000
0000
0100
0000
0010
0000
0000
0001
0000
0010
0000
0000
0100
0000
0000
1000
0000
0000
2220
0330
0001
0000
0010
0000
0000
0100
0000
0001
0000
0010
0000
0100
0000
0000
0001
0000
0010
0000
0100
0000
0001
0000
0000
0010
0000
0100
0000
0001
0000
0010
0000
0000
0100
0000
0001
0000
0010
0000
0100
0000
0000
0001
0000
0010
0000
0100
0000
0001
0000
0000
0010
0000
0100
0000
0001
0000
0010
0000
0000
0100
0000
0001
0000
0010
0000
0100
0000
0000
0001
0000
0202
3003
0010
0000
0001
0000
0000
1000
0000
0010
0000
0001
0000
1000
0000
0000
0010
0000
0001
0000
1000
0000
0010
0000
0000
0001
0000
1000
0000
0010
0000
0001
0000
0000
1000
0000
0010
0000
0001
0000
1000
0000
0000
0010
0000
0001
0000
1000
0000
0010
0000
0000
0001
0000
1000
0000
0010
0000
0001
0000
0000
1000
0000
0010
0000
0001
0000
1000
0000
0000
0010
0000
0022
0303
1000
0000
0100
0000
0000
0001
0000
1000
0000
0100
0000
0001
0000
0000
1000
0000
0100
0000
0001
0000
1000
0000
0000
,
0100
0000
0001
0000
1000
0000
0100
0000
0000
0001
0000
1000
0000
0100
0000
0001
0000
0000
1000
0000
0100
0000
0001
0000
1000
0000
0000
0100
0000
0001
0000
1000
0000
0100
0000
0000
0001
0000
1000
0000
0100
0000
0001
0000
0000
1000
0000
0202
0330
1000
0000
0100
0000
0000
0010
0000
1000
0000
0100
0000
0010
0000
0000
1000
0000
0100
0000
0010
0000
1000
0000
0000
0100
0000
0010
0000
1000
0000
0100
0000
0000
0010
0000
1103
0011
0000
1100
0011
0000
1100
0011
0000
1100
0011
0000
1100
0011
0000
1100
0011
0000
1100
0011
0000
1100
0011
0000
1100
0011
0000
1100
0011
0000
1100
0011
0000
1100
0011
0000
1001
0000
0100
0000
0001
0000
0000
0010
0000
1001
0000
0010
0000
1000
0000
0000
0100
0000
1001
0000
0100
0000
0001
0000
0000
0010
0000
1001
0000
0010
0000
1000
0000
0000
0100
0000
1001
0000
0100
0000
0001
0000
0000
0010
0000
1001
0000
0100
0000
1000
0000
0000
0010
0000
1001
0000
0010
0000
0001
0000
0000
0100
0000
1001
0000
0100
0000
1000
0000
0000
0001
0000
0110
,
0000
0001
0000
0010
0000
0000
1000
0000
0110
0000
1000
0000
0100
0000
0000
0001
0000
0110
0000
0001
0000
0010
0000
0000
1000
0000
0110
0000
1000
0000
0100
0000
0000
0001
0000
0110
0000
0001
0000
0010
0000
0000
1000
0000
0110
0000
1000
0000
0100
0000
0000
0001
0000
0110
0000
0001
0000
0010
0000
0000
1000
0000
0110
0000
1000
0000
0100
0000
0000
0001
0000
0110
0000
0001
0000
0010
0000
0000
0100
0000
0011
0000
0100
0000
0001
0000
0000
1000
0000
0011
0000
1000
0000
0010
0000
0000
0100
0000
0011
0000
0100
0000
0001
0000
0000
1000
0000
0011
0000
1000
0000
0010
0000
0000
0100
0000
0011
0000
0100
0000
0001
0000
0000
1000
0000
0011
0000
1000
0000
0010
0000
0000
0100
0000
0011
0000
0100
0000
0001
0000
0000
0010
0000
1100
0000
0010
0000
1000
0000
0000
0001
0000
1100
0000
0001
0000
0100
0000
0000
0010
0000
1100
0000
0010
0000
1000
0000
0000
0001
0000
1100
0000
0001
0000
0100
0000
0000
0010
0000
1100
0000
0010
0000
1000
0000
0000
0001
0000
1100
0000
0001
0000
,
0100
0000
0000
0010
0000
1100
0000
0010
0000
1000
0000
0000
0001
0000
1100
0000
0001
0000
0100
0000
0000
0010
0000
1001
0000
0100
0000
0001
0000
0000
0010
0000
1001
0000
0100
0000
1000
0000
0000
0010
0000
1001
0000
0100
0000
0001
0000
0000
0010
0000
1001
0000
0100
0000
1000
0000
0000
0010
0000
1001
0000
0100
0000
0001
0000
0000
0010
0000
1001
0000
0100
0000
1000
0000
0000
0010
0000
1001
0000
0100
0000
0001
0000
0000
0010
0000
1001
0000
0100
0000
1000
0000
0000
0001
0000
0110
0000
1000
0000
0100
0000
0000
0001
0000
0110
0000
1000
0000
0010
0000
0000
0001
0000
0110
0000
1000
0000
0100
0000
0000
0001
0000
0110
0000
1000
0000
0010
0000
0000
0001
0000
0110
0000
1000
0000
0100
0000
0000
0001
0000
0110
0000
1000
0000
0010
0000
0000
0001
0000
0110
0000
1000
0000
0100
0000
0000
0001
0000
0110
0000
1000
0000
0010
0000
0000
0001
0000
1010
0000
0001
0000
1000
0000
0000
0100
0000
1010
0000
0001
0000
0010
0000
0000
0100
0000
1010
0000
0100
0000
1000
0000
0000
,
0001
0000
1010
0000
0100
0000
0010
0000
0000
0001
0000
1010
0000
0100
0000
1000
0000
0000
0100
0000
1010
0000
0001
0000
0010
0000
0000
0001
0000
1010
0000
0100
0000
1000
0000
0000
0100
0000
1010
0000
1000
0000
0010
0000
0000
1000
0000
0101
0000
1000
0000
0001
0000
0000
1000
0000
0101
0000
0010
0000
0100
0000
0000
0010
0000
0101
0000
1000
0000
0001
0000
0000
1000
0000
0101
0000
0010
0000
0100
0000
0000
0010
0000
1000
0000
0100
0000
0010
0000
0000
0001
0000
1000
0000
0100
0000
0010
0000
0000
0001
0000
1000
0000
0000
0100
0000
0000
0010
0000
0000
0001
0000
0000
0010
0000
0000
0100
0000
0000
1000
0100
0000
0010
0001
0000
0010
0100
0000
1000
0100
0000
0010
0001
0000
0010
0100
0000
1000
0100
0000
0010
0001
0000
0010
0100
0000
1000
0100
0000
0010
0001
0000
0010
0100
0000
1001
0000
0100
0000
0011
0000
0000
0100
0000
1010
0000
0010
0000
0101
0000
0000
0010
0000
0011
0000
1000
0000
1100
0000
0000
1000
0000
0101
0000
0001
0000
1010
0000
0000
0001
0000
1001
,
0000
1000
0000
0110
0000
0000
1000
0000
1100
0000
0001
0000
0011
0000
0000
0001
0000
0110
0000
0100
0000
1001
0000
0000
0100
0000
0101
0000
0010
0000
1010
0000
0000
0010
0000
1001
0000
1000
0000
1010
0000
0000
1000
0000
1100
0000
0100
0000
0011
0000
0000
0100
0000
1010
0000
0010
0000
0101
0000
0000
0010
0000
0011
0000
0001
0000
1100
0000
0000
0001
0000
0110
0000
0100
0000
1001
0000
0000
0100
0000
0101
0000
0001
0000
1010
0000
0000
0001
0000
1001
0000
1000
0000
0110
0000
0000
1000
0000
0011
0000
0010
0000
1100
0000
0000
0010
0000
0110
0000
1000
0000
1100
0000
0000
1000
0000
0101
0000
0001
0000
1010
0000
0000
0001
0000
1100
0000
0100
0000
0011
0000
0000
0100
0000
1010
0000
0010
0000
0101
0000
0000
0010
0000
1001
0000
0001
0000
0110
0000
0000
0001
0000
0011
0000
0100
0000
1100
0000
0000
0100
0000
0110
0000
0010
0000
1001
0000
0000
0010
0000
1010
0000
1000
0000
0101
0000
0000
1000
0000
1001
0000
0010
0000
0101
0000
0000
0010
0000
0011
0000
1000
0000
,
1100
0000
0000
1000
0000
0101
0000
0001
0000
1010
0000
0000
0001
0000
1100
0000
0100
0000
0011
0000
0000
0100
0000
0110
0000
1000
0000
1001
0000
0000
0001
0000
1010
0000
0100
0000
0101
0000
0000
0010
0000
0111
0000
0111
0000
1011
0000
0000
1011
0000
1101
0000
1101
0000
1110
0000
0000
1110
0000
2202
0303
0010
0000
0001
0000
0000
0100
0000
0001
0000
0010
0000
0001
0000
0000
0100
0000
0001
0000
0010
0000
0001
0000
0000
0100
0000
0001
0000
0010
0000
0001
0000
0000
0100
0000
0022
3030
0100
0000
1000
0000
0000
0010
0000
1000
0000
0100
0000
1000
0000
0000
0010
0000
1000
0000
0100
0000
1000
0000
0000
0010
0000
1000
0000
0100
0000
1000
0000
0000
0010
0000
2200
3003
0010
0000
0001
0000
0000
1000
0000
0001
0000
0010
0000
0001
0000
0000
1000
0000
0001
0000
0010
0000
0001
0000
0000
1000
0000
0001
0000
0010
0000
0001
0000
0000
1000
0000
0022
0303
0100
0000
1000
0000
0000
0001
0000
1000
0000
0100
0000
1000
0000
0000
0001
0000
1000
0000
0100
0000
1000
0000
0000
,
0001
0000
1000
0000
0100
0000
1000
0000
0000
0001
0000
2200
3330
0001
0000
0010
0000
0000
0001
0000
1010
0000
0001
0000
0010
0000
0000
0001
0000
1100
0000
0001
0000
0010
0000
0000
0001
0000
1010
0000
0001
0000
0010
0000
0000
0001
0000
0110
0000
1000
0000
0100
0000
0000
1000
0000
0101
0000
1000
0000
0100
0000
0000
1000
0000
0011
0000
1000
0000
0100
0000
0000
1000
0000
0101
0000
1000
0000
0100
0000
0000
1000
0000
0110
0000
0001
0000
0110
0000
0000
1000
0000
0110
0000
0001
0000
0110
0000
0000
1000
0000
0110
0000
0001
0000
0110
0000
0000
1000
0000
0110
0000
0001
0000
0110
0000
0000
1000
0000
1000
0100
0010
0000
1001
0000
0100
0010
0001
1000
0100
0000
0010
0001
0000
0010
0100
0000
1011
0000
1011
0000
1110
0000
0000
1110
0000
0111
0000
0111
0000
1101
0000
0000
1101
0000
2222
3333
0001
0000
1100
0000
0000
0010
0000
0011
0000
0100
0000
0110
0000
0000
1000
0000
1010
0000
0100
0000
1001
0000
0000
0010
0000
0101
0000
0001
0000
1010
0000
0000
0010
0000
0011
,
0000
0100
0000
0110
0000
0000
1000
0000
1100
0000
0100
0000
0011
0000
0000
0010
0000
0101
0000
0001
0000
1001
0000
0000
0010
0000
1010
0000
0100
0000
0101
0000
0000
1000
0000
1010
0000
0100
0000
0110
0000
0000
0010
0000
0011
0000
0001
0000
1100
0000
0000
0010
0000
1010
0000
0100
0000
1001
0000
0000
1000
0000
0101
0000
0100
0000
1010
0000
0000
0010
0000
1001
0000
0001
0000
0110
0000
0000
0010
0000
1100
0000
0100
0000
0011
0000
0000
1000
0000
0101
0000
0100
0000
1001
0000
0000
0010
0000
1010
0000
0001
0000
0101
0000
0000
0010
0000
1001
0000
0100
0000
0110
0000
0000
1000
0000
0011
0000
0100
0000
1100
0000
0000
0010
0000
1010
0000
0001
0000
1001
0000
0000
0010
0000
0101
0000
0100
0000
1010
0000
0000
1000
0000
1001
0000
0100
0000
0110
0000
0000
0010
0000
1100
0000
0001
0000
0011
0000
0000
0010
0000
0101
0000
0100
0000
1001
0000
0000
1000
0000
1010
0000
0100
0000
0101
0000
0000
0010
0000
1100
0000
0001
0000
0110
0000
0000
0010
0000
0011
0000
0100
0000
,
1100
0000
0000
1000
0000
1010
0000
0100
0000
1001
0000
0000
0010
0000
0101
0000
0001
0000
1010
0000
0000
0010
0000
1011
0000
0100
0000
0110
0000
0000
1000
0000
0111
0000
0000
1011
0000
0000
1101
0000
0000
1110
0000
0000
1101
0000
0000
1011
0000
0000
0111
0000
1011
0000
1101
0000
0000
1110
0000
1111
0000
1100
0000
0011
0000
0000
1100
0000
0011
0000
1100
0000
0011
0000
0000
1100
0000
0011
0000
1100
0000
0011
0000
0000
1100
0000
0011
0000
1100
0000
0011
0000
0000
1100
0000
1111
0000
1010
0000
0101
0000
0000
1010
0000
0101
0000
1010
0000
0101
0000
0000
1010
0000
0101
0000
1010
0000
0101
0000
0000
1010
0000
0101
0000
1010
0000
0101
0000
0000
1010
0000
1111
0000
0011
0000
1100
0000
0000
0011
0000
1100
0000
0011
0000
1100
0000
0000
0011
0000
1100
0000
0011
0000
1100
0000
0000
0011
0000
1100
0000
0011
0000
1100
0000
0000
0011
0000
1111
0000
1001
0000
0110
0000
0000
1001
0000
0110
0000
1001
0000
0110
0000
0000
1001
0000
0110
0000
1001
0000
0110
0000
0000
,
1001
0000
0110
0000
1001
0000
0110
0000
0000
1001
0000
1111
0000
1000
0000
0100
0000
0000
0100
0000
0110
0000
0010
0000
0001
0000
0000
0001
0000
1001
0000
1000
0000
0100
0000
0000
0100
0000
0110
0000
0010
0000
0001
0000
0000
0001
0000
1001
0000
0001
0000
0010
0000
0000
0010
0000
0110
0000
0100
0000
1000
0000
0000
1000
0000
1001
0000
0001
0000
0010
0000
0000
0010
0000
0110
0000
0100
0000
1000
0000
0000
1000
0000
1001
0000
0100
0000
0001
0000
0000
0010
0000
1001
0000
0100
0000
1000
0000
0000
0010
0000
1001
0000
0100
0000
0001
0000
0000
0010
0000
1001
0000
0100
0000
1000
0000
0000
0010
0000
1110
0000
0000
1110
0000
0000
1101
0000
0000
1101
0000
0000
1011
0000
0000
1011
0000
0000
0111
0000
0111
0000
1011
0000
0000
1011
0000
1101
0000
1101
0000
1110
0000
0000
1110
0000
1100
0000
1000
0000
0001
0000
0000
0001
0000
0011
0000
0010
0000
0100
0000
0000
0100
0000
1100
0000
1000
0000
0001
0000
0000
0001
0000
0011
0000
0010
0000
0100
0000
0000
0010
0000
0011
,
0000
0001
0000
1000
0000
0000
1000
0000
1100
0000
0100
0000
0100
0000
0000
0010
0000
0011
0000
0001
0000
1000
0000
0000
1000
0000
1100
0000
0100
0000
0100
0000
0000
0100
0000
1100
0000
0001
0000
1000
0000
0000
0001
0000
1100
0000
0001
0000
0010
0000
0000
0001
0000
1100
0000
0001
0000
1000
0000
0000
0001
0000
1100
0000
0001
0000
0010
0000
0000
0100
0000
0011
0000
1000
0000
0001
0000
0000
1000
0000
0011
0000
1000
0000
0100
0000
0000
1000
0000
0011
0000
1000
0000
0001
0000
0000
1000
0000
0011
0000
1000
0000
0100
0000
0000
0010
0000
1100
0000
1000
0000
0001
0000
0000
0001
0000
0011
0000
0010
0000
0010
0000
0000
0100
0000
1100
0000
1000
0000
0001
0000
0000
0001
0000
0011
0000
0010
0000
0010
0000
0000
0010
0000
0011
0000
0001
0000
1000
0000
0000
1000
0000
1100
0000
0100
0000
0100
0000
0000
0010
0000
0011
0000
0001
0000
1000
0000
0000
1000
0000
1100
0000
0100
0000
0100
0000
0000
0100
0000
1010
0000
0001
0000
0010
0000
0000
0001
0000
1010
0000
0001
0000
,
0100
0000
0000
0001
0000
1010
0000
0001
0000
0010
0000
0000
0001
0000
1010
0000
0001
0000
0100
0000
0000
0010
0000
0101
0000
1000
0000
0100
0000
0000
0010
0000
0001
0000
0010
0000
0100
0000
0000
1000
0000
0100
0000
0000
0010
0000
0000
0001
0000
0000
0010
0000
0000
0100
0000
0000
0010
0000
0000
2202
3300
0010
0000
1000
0000
0000
0100
0000
0010
0000
1000
0000
0100
0000
0000
0010
0000
0100
0000
1000
0000
0010
0000
0000
0100
0000
1000
0000
0010
0000
0100
0000
0000
1000
0000
0100
0000
0010
0000
1000
0000
0000
0100
0000
0010
0000
1000
0000
0100
0000
0000
0010
0000
0100
0000
1000
0000
0010
0000
0000
0100
0000
1000
0000
0010
0000
0100
0000
0000
1000
0000
2020
0033
0100
0000
0001
0000
0000
0010
0000
0100
0000
0001
0000
0010
0000
0000
0100
0000
0010
0000
0001
0000
0100
0000
0000
0010
0000
0001
0000
0100
0000
0010
0000
0000
0001
0000
0010
0000
0100
0000
0001
0000
0000
0010
0000
0100
0000
0001
0000
0010
0000
0000
0100
0000
0010
0000
0001
0000
0100
0000
0000
,
0010
0000
0001
0000
0100
0000
0010
0000
0000
0001
0000
0220
3030
0001
0000
0010
0000
0000
1000
0000
0010
0000
0001
0000
1000
0000
0000
0010
0000
0001
0000
1000
0000
0010
0000
0000
0001
0000
0010
0000
1000
0000
0001
0000
0000
0010
0000
1000
0000
0001
0000
0010
0000
0000
1000
0000
0010
0000
0001
0000
1000
0000
0000
0010
0000
0001
0000
1000
0000
0010
0000
0000
0001
0000
0010
0000
1000
0000
0001
0000
0000
0010
0000
0022
0303
1000
0000
0100
0000
0000
0001
0000
0100
0000
1000
0000
0001
0000
0000
0100
0000
1000
0000
0001
0000
0100
0000
0000
1000
0000
0100
0000
0001
0000
1000
0000
0000
0100
0000
1130
0000
0011
0000
1100
0000
0000
0011
0000
1100
0000
0011
0000
1100
0000
0000
0011
0000
1100
0011
1100
0000
1111
0000
0011
1100
0011
1100
0011
1100
0000
1111
0000
0011
1100
0011
1110
0000
0000
0000
0110
0000
0000
0000
0000
1100
0000
0000
0000
0110
0000
0000
0000
0000
0000
0000
0000
0000
1001
0000
0000
0000
0000
0110
0000
0000
0000
1001
0000
0000
0000
0000
1101
,
0000
0000
0000
1001
0000
0000
0000
0000
0101
0000
0000
0000
1001
0000
0000
0000
0000
1011
0000
0000
0000
1001
0000
0000
0000
0000
1010
0000
0000
0000
1001
0000
0000
0000
0000
0111
0000
0000
0000
0110
0000
0000
0000
0000
1100
0000
0000
0000
0110
0000
0000
0000
0000
0000
0000
0000
0000
1001
0000
0000
0000
0000
0110
0000
0000
0000
1001
0000
0000
0000
0000
1011
0000
0000
0000
1001
0000
0000
0000
0000
1010
0000
0000
0000
1001
0000
0000
0000
0000
1101
0000
0000
0000
1001
0000
0000
0000
0000
0101
0000
0000
0000
1001
0000
0000
0000
0000
1110
0000
0000
0000
1001
0000
0000
0000
0000
0101
0000
0000
0000
1001
0000
0000
0000
0000
0000
0000
0000
0000
0110
0000
0000
0000
0000
1001
0000
0000
0000
0110
0000
0000
0000
0000
1101
0000
0000
0000
0110
0000
0000
0000
0000
0011
0000
0000
0000
0110
0000
0000
0000
0000
1011
0000
0000
0000
0110
0000
0000
0000
0000
1100
0000
0000
0000
0110
0000
0000
0000
0000
0111
0000
0000
0000
1001
0000
0000
0000
0000
0101
0000
0000
0000
,
1001
0000
0000
0000
0000
0000
0000
0000
0000
0110
0000
0000
0000
0000
1001
0000
0000
0000
0110
0000
0000
0000
0000
1110
0000
0000
0000
1001
0000
0000
0000
0000
0110
0000
0000
0000
0110
0000
0000
0000
0000
0011
0000
0000
0000
0011
0000
0000
0000
0000
1100
0000
0000
0000
1100
0000
0000
0000
0000
1110
0000
0000
0000
0110
0000
0000
0000
0000
0011
0000
0000
0000
0110
0000
0000
0000
0000
0000
0000
0000
0000
1001
0000
0000
0000
0000
0110
0000
0000
0000
1001
0000
0000
0000
0000
1011
0000
0000
0000
1001
0000
0000
0000
0000
1010
0000
0000
0000
1001
0000
0000
0000
0000
1101
0000
0000
0000
1001
0000
0000
0000
0000
0101
0000
0000
0000
1001
0000
0000
0000
0000
0111
0000
0000
0000
0110
0000
0000
0000
0000
0011
0000
0000
0000
0110
0000
0000
0000
0000
0000
0000
0000
0000
1001
0000
0000
0000
0000
0110
0000
0000
0000
1001
0000
0000
0000
0000
1101
0000
0000
0000
1001
0000
0000
0000
0000
0101
0000
0000
0000
1001
0000
0000
0000
0000
1011
0000
0000
0000
1001
0000
0000
,
0000
0000
1010
0000
0000
0000
1001
0000
0000
0000
0000
1110
0000
0000
0000
1001
0000
0000
0000
0000
1010
0000
0000
0000
1001
0000
0000
0000
0000
0000
0000
0000
0000
0110
0000
0000
0000
0000
1001
0000
0000
0000
0110
0000
0000
0000
0000
0111
0000
0000
0000
0110
0000
0000
0000
0000
1100
0000
0000
0000
0110
0000
0000
0000
0000
1101
0000
0000
0000
0110
0000
0000
0000
0000
0011
0000
0000
0000
0110
0000
0000
0000
0000
1011
0000
0000
0000
1001
0000
0000
0000
0000
1010
0000
0000
0000
1001
0000
0000
0000
0000
0000
0000
0000
0000
0110
0000
0000
0000
0000
1001
0000
0000
0000
0110
0000
0000
0000
0000
1110
0000
0000
0000
0110
0000
0000
0000
0000
1001
0000
0000
0000
1001
0000
0000
0000
0000
0101
0000
0000
0000
1010
0000
0000
0000
0000
0110
0000
1001
0000
0110
0000
0000
1001
0000
2000
0000
0000
0200
0000
0000
0020
0000
0000
0002
0000
3000
2000
0000
0300
0200
0000
0030
0020
0000
0003
0002
0000
3000
2000
0000
0300
0200
0000
0030
0020
0000
0003
0002
0000
3000
2000
,
0000
0300
0200
0000
0030
0020
0000
0003
0002
0000
3000
2000
0000
0300
0200
0000
0030
0020
0000
0003
0002
0000
3000
2000
0000
0300
0200
0000
0030
0020
0000
0003
0002
0000
3000
2000
0000
0300
0200
0000
0030
0020
0000
0003
0002
0000
3000
2000
0000
0300
0200
0000
0030
0020
0000
0003
0002
0000
3000
2000
0000
0300
0200
0000
0030
0020
0000
0003
0002
0000
3000
2000
0000
0300
0200
0000
0030
0020
0000
0003
0002
0000
3000
2000
0000
0300
0200
0000
0030
0020
0000
0003
0002
0000
3000
2000
0000
0300
0200
0000
0030
0020
0000
0003
0002
0000
3330
2220
3333
0000
0000
0000
0000
0000
0000
0000
0000
0000
0000
0000
0000
0000
0000
0000
0000
0000
0000
0000
0000
0000
0000
0000
0000
0000
0000
0000
0000
0000
0000
0000
0000
0000
0000
0000
0000
0000
0000
0000
0000
0000
0000
0000
0000
0000
0000
0000
0000
0000
0000
0000
0000
0000
0000
0000
0000
0000
0000
0000
0000
0000
0000
0000
0000
0000
0000
0000
0000
0000
0000
0000
0000
0000
0000
0000
0000
0000
0000
0000
0000
0000
0000
0000
;

//---------------dance-single - Einfach----------------
#NOTES:
     dance-single:
     Einfach:
     Easy:
     15:
     1.000,1.000,1.000,1.000,1.000,998.000,526.000,905.000,0.000,510.000:
2222
3333
2200
3311
2200
0000
3022
0333
,
1110
0000
0000
0011
0000
0000
1110
0000
0000
0111
0000
0000
1111
0000
0000
0000
1111
0000
0000
0000
0000
1110
1111
0000
,
1111
0000
1111
1111
1111
0000
0000
0000
0000
0000
0000
0000
0000
0000
1111
0000
0000
0000
0000
0000
1222
0000
0333
0000
,
0000
2220
3331
1111
2022
3033
0000
2000
3000
0222
1333
1111
,
1110
1222
1333
2000
3222
0333
1111
0000
2222
3333
0000
0000
,
0000
0000
0000
0000
0000
0000
0000
0000
0000
0000
0000
0000
0000
0000
0000
0000
2222
0000
0000
0000
0000
0000
0000
0000
0000
0000
0000
0000
0000
0000
0000
0000
0000
0000
0000
0000
0000
0000
0000
0000
0000
0000
0000
0000
0000
0000
0000
0000
0000
0000
0000
0000
0000
0000
0000
0000
0000
0000
0000
0000
0000
0000
0000
0000
0000
0000
0000
0000
0000
0000
0000
0000
0000
0000
0000
0000
0000
0000
0000
0000
3333
0000
0000
0000
0000
0000
0000
0000
0000
0000
0000
0000
0000
0000
0000
0000
0000
0000
0000
0000
0000
0000
0000
0000
0000
0000
0000
0000
0000
0000
0000
0000
0000
0000
0000
0000
0000
0000
0000
0000
0000
0000
0000
0000
0000
0000
0000
0000
0000
0000
0000
0000
0000
0000
0000
0000
0000
0000
0000
0000
0000
0000
0000
0000
1111
0000
0000
0000
0000
0000
1112
0000
1110
1113
0000
0000
0010
0000
0000
2000
0000
0000
3000
0000
0000
0000
0000
0000
0000
0000
0000
0222
0000
0000
0333
0000
0000
0112
0000
0000
0003
0000
0000
0000
0000
0000
0000
0000
0000
2222
0000
0000
,
3333
0000
0000
0000
0222
0000
0333
0000
0111
0000
0110
0000
0011
0000
0020
0000
0031
0000
1100
0000
0220
0000
0331
0000
0111
0000
0011
0000
0102
0000
0023
0000
0030
0000
0000
0000
0000
0000
0000
0000
0000
0000
0000
0000
0000
2222
3333
0000
,
2000
3000
0222
1333
1222
1333
1122
1133
2222
3333
0000
0000
0020
0000
0000
0000
0000
2202
3303
0001
0101
0002
1003
1001
0101
0001
0000
0000
1002
0003
2201
3300
1002
2203
3301
2200
3301
0000
0000
2202
3303
2200
3302
0003
2200
0002
3303
0000
,
0200
0300
0000
2200
3300
1100
0000
2200
3300
1100
2200
3300
2000
3000
2000
3000
2000
3200
0300
0100
0200
0000
0302
0003
0002
0003
2000
3000
2000
3200
0300
0002
0003
0000
0000
0000
1101
0000
0000
0000
0000
0000
0000
0000
0000
0000
0000
0000
,
0000
0000
0000
1000
0000
0000
0000
0000
0000
0000
0000
0000
2202
0000
0000
3303
0000
0000
1100
0000
0000
0002
0000
0000
2203
0000
0000
3002
0000
0000
0303
0000
0000
2000
0000
0000
0200
0000
0000
3300
0000
0000
0200
0000
0000
2000
0000
0000
3302
0000
0000
2003
0000
0000
0200
0000
0000
3302
0000
0000
2003
0000
0000
0200
0000
0000
3301
0000
0000
1100
0000
0000
0000
0000
0000
0000
0000
0000
0000
0000
0000
0000
0000
0000
0000
0000
0000
0000
0100
0000
0000
0000
0000
0000
0000
0000
0100
0000
0000
0000
0000
0000
0000
0000
0000
0000
0000
0000
0000
0000
0000
0000
0000
0000
0000
0000
0000
0000
0000
0000
1101
0000
0000
0000
0000
0000
0000
0000
0000
0000
0000
0000
0000
0000
0000
0000
0100
0000
0000
0000
0000
0000
0000
0000
0200
0000
0000
0000
0000
0000
0000
0000
0300
0000
0000
0000
0000
0000
0000
0000
0000
0000
0001
0000
0000
0001
0000
0000
2001
0000
0000
0000
0000
0000
0000
0000
3000
0002
0000
0000
0003
0000
0000
0001
0100
0000
0000
0000
0000
0001
0000
0000
,
2202
0000
0000
0003
0000
0000
0001
0000
3300
0000
0000
0000
0000
0000
0000
0000
0000
0000
0000
0000
0000
0000
0000
0000
2000
0000
0000
0000
0000
0000
0001
0000
3000
0000
0000
0000
0002
0000
0000
0003
0000
0000
0000
0000
0000
0000
0000
0000
2200
0000
0000
0000
0000
0000
0000
0000
3000
0000
0000
0000
0002
0000
0000
0003
0300
0000
0002
0000
0000
2003
0000
0000
3102
0000
0000
2003
0000
0000
0000
0000
0000
3002
0000
0000
2003
0000
0000
3000
0000
0000
0000
0000
0000
0000
0000
0000
1131
0000
0000
0000
0000
0000
0000
0000
0000
0000
0000
0000
0000
0000
0000
0000
0000
0000
0000
0000
0000
0000
0000
0000
0000
0000
0000
0000
0000
0000
0000
0000
0010
0000
0000
0000
0000
0000
0000
0000
0000
0000
0000
0000
0000
0000
0000
0000
0101
0000
0000
0000
0000
0000
0000
0000
0100
0000
0000
0000
0002
0000
0000
0000
0000
0000
0000
0000
0000
0000
0000
0000
2223
0000
0000
0000
0000
0000
0000
0000
0000
0000
0000
0000
3330
0000
0000
0000
0000
0000
0000
0000
0000
0000
0000
0000
,
2211
0010
3322
2233
0311
3002
0223
2330
3111
0000
0221
2030
3311
1111
2222
3333
,
0111
0000
0000
0000
0111
0000
0000
0000
1122
0000
0000
0000
0233
0000
0000
0000
1300
0000
0000
0000
0000
0000
0000
0000
0111
0000
0000
0000
0222
0000
0000
0000
1333
0000
0000
0000
2202
0000
0000
0000
0020
0000
0000
0000
3333
0000
0000
0000
0000
0000
0000
0000
1100
0000
0000
0000
2222
0000
0000
0000
3333
2220
3331
1220
,
2331
3100
2200
3300
2100
3220
0332
0103
0002
0003
2221
3332
2223
3330
2222
3333
1212
0000
0000
0000
2303
0000
0000
0000
3000
0000
0000
0000
0000
0000
0000
0000
0000
0000
0000
0000
0000
0000
0000
0000
1112
0000
0000
0000
2203
0000
0000
0000
3310
0000
0000
0000
1222
0000
0000
0000
0333
0000
0000
0000
0010
0000
0000
0000
,
0001
2222
3333
1100
0221
0331
2220
3332
2223
3332
2223
3330
2200
3300
1110
0022
,
2233
0000
0000
0000
0000
0000
0000
0000
0000
0000
0000
0000
3311
0000
0000
0000
0000
0000
0000
0000
0000
0000
0000
0000
0020
0000
0000
0000
0000
0000
0000
0000
0000
0000
0000
0000
0030
0000
0000
0000
0000
0000
0000
0000
0000
0000
0000
0000
1111
0000
0000
0000
0000
0000
0000
0000
0000
0000
0000
0000
1111
0000
0000
0000
0000
0000
0000
0000
0000
0000
0000
0000
1111
0000
0000
0000
0000
0000
0000
0000
0000
0000
0000
0000
1111
0000
0000
0000
0000
0000
0000
0000
0000
0000
0000
0000
0011
0000
0000
0000
0000
0000
0011
0000
0000
1110
0000
0000
1100
0000
0000
1000
0000
0000
0000
0000
0000
0000
0000
0000
0000
0000
0000
2220
0000
0000
3330
0000
0000
0001
0000
0000
2221
0000
0000
0000
3330
0000
0000
0000
1102
0000
0000
0000
0010
0000
0000
0000
0220
0000
0000
0000
0330
0000
0000
0000
0003
0000
0000
0000
2000
0000
0000
0000
3000
0000
0000
0000
1111
0000
0000
0000
0000
0000
0000
0000
0000
0000
0000
0000
0111
0000
0000
0000
0000
0000
0000
0000
0000
0000
0000
0000
,
0000
0000
0200
0000
0300
0000
1000
0000
1010
0000
0000
0000
2220
3330
1200
0310
2220
3302
2033
0220
3302
0033
2200
3320
,
0032
2003
0000
3000
0020
0000
0032
2003
0200
3320
0030
0022
0030
0023
0031
2200
3020
0332
2003
3220
0302
0033
2000
3200
,
0022
0000
0000
0000
0000
0000
0000
0000
0330
0000
0000
0000
0000
0000
0000
0000
2103
0000
0000
0000
0000
0000
0000
0000
3000
0000
0000
0000
0000
0000
0000
0000
0000
0000
0000
0000
0000
0000
0000
0000
0000
0000
0000
0000
0000
0000
0000
0000
0000
0000
0000
0000
0000
0000
0001
0000
0000
2220
0000
0000
3332
0000
0000
2213
0000
0000
3311
0000
0000
0000
0000
0000
0000
0000
0000
2000
0000
0000
0220
0000
0000
3331
0000
0000
0000
0000
0000
0000
0000
0000
0000
0000
0000
0000
0000
0000
0111
0000
0000
0000
0000
0000
0000
0000
0000
0000
0000
0000
0000
0000
0000
0000
0000
0000
0000
0000
0000
0000
0000
0000
0000
0000
0000
0000
0000
0000
0000
0000
1111
0000
0000
0000
0000
0000
0000
0000
0000
0000
0000
0000
0000
0000
0000
0000
1111
0000
0000
0111
0000
0000
0110
0000
0000
0000
0000
0000
0000
0000
0000
0110
0000
0000
0000
0000
0000
0000
0000
0000
1110
0000
0000
0000
0000
0000
0000
0000
0000
0000
0000
0000
0000
0000
0000
0000
0000
0000
0000
0000
0000
0000
0000
0000
,
0002
0000
0000
0000
0000
0000
0000
0000
0000
0000
0000
0000
0023
0000
0000
0000
0000
0000
0000
0000
0000
0000
0000
0000
0031
0000
0000
0000
0000
0000
0000
0000
0000
0000
0000
0000
1000
0000
0000
0000
0000
0000
0000
0000
0000
0000
0000
0000
0100
0000
0000
0000
0000
0000
0000
0000
0000
0000
0000
0000
1001
0000
0000
0000
0000
0000
0000
0000
0000
0000
0000
0000
0010
0000
0000
0000
0000
0000
0000
0000
0000
0000
0000
0000
0000
0000
0000
0000
0000
0000
0000
0000
0000
0000
0000
0000
0000
0000
0000
0000
0000
0000
0000
0000
1110
0000
0000
0000
0000
0000
0000
0000
1010
0000
0000
0000
0000
0000
0000
0000
0011
0000
0000
0000
0000
0000
0000
0000
1110
0000
0000
0000
0000
0000
0000
0000
1111
0000
0000
0000
0000
0000
0000
0000
1111
0000
0000
0000
0000
0000
0000
0000
0000
0000
0000
0000
0111
0000
0000
0000
0000
0000
1000
0000
0000
0000
0000
0000
1000
0000
0000
0000
0000
0000
0000
0000
0000
0000
0000
0000
0222
0000
0000
0000
0000
0000
0333
0000
0000
0000
0000
0000
,
0100
0000
0100
0000
0000
0000
0200
0000
0300
0000
2101
0000
3200
0000
0020
0000
0331
0000
0000
0000
0000
0000
2000
0000
0200
0000
3311
0000
0000
0000
0000
0000
1110
0000
0000
0000
0000
0000
0000
0000
0000
0000
0000
0000
2222
0000
0000
0000
3333
0000
0000
0000
1111
0010
0020
0030
1100
0000
0002
2113
3012
1103
2221
3331
,
0100
0000
0000
1002
0000
0000
0113
0000
0000
0000
0000
0000
2221
0000
0000
0000
0000
0000
0000
0000
0000
0000
0000
0000
3331
0000
0000
0000
0000
0000
0000
0000
0000
0000
0000
0000
0000
0000
0000
0000
0000
0000
0000
0000
0000
0000
0000
0000
1110
0000
0000
0000
0000
0000
0000
0000
0000
0000
0000
0000
0000
0000
0000
0000
1110
0000
0000
0000
0000
0000
0000
0000
0000
0000
0000
0000
0000
0000
0000
0000
0000
0000
0000
0000
0000
0000
0000
0000
0000
0000
0000
0000
0000
0000
0000
0000
0000
0000
0000
0000
0000
0000
0000
0000
0000
0000
0000
0000
0000
0000
0000
0000
0011
0000
0000
0000
0000
0000
0000
0000
0000
0000
0000
0000
0000
0000
0000
0000
1110
0000
0000
0000
0000
0000
0000
0000
0000
0000
0000
0000
0000
0000
0000
0000
0000
0000
0000
0000
0000
0000
0000
0000
0000
0000
0000
0000
0000
0000
0000
0000
0000
0000
0000
0000
0000
0000
0000
0000
1110
0000
0000
0000
0000
0000
0000
0000
0000
0000
0000
0000
0000
0000
0000
0000
0000
0000
0000
0000
0000
0000
0000
0000
,
1100
0000
0000
0010
1111
0000
0000
0000
1110
0000
0000
0000
0011
0000
1010
0000
0000
0000
0202
0000
0000
0000
0000
0000
,
0000
0000
0000
1000
,
0000
0000
0000
0000
0000
0000
0000
0000
0000
0000
0000
0000
0000
0000
2000
3000
0000
0000
2000
3000
0303
0202
0000
0000
,
0000
0000
0000
0000
0000
0000
0000
0000
0000
0000
0000
0303
0000
0000
1100
0000
0000
0000
1101
0000
0000
0000
0000
0000
,
1011
0000
0011
0000
0000
0000
1011
0000
0000
1110
0000
0000
1011
0000
0011
0000
0000
0000
1100
0000
0110
0000
0000
0000
,
1100
0000
0000
1101
1101
0000
0000
0111
0000
0101
0000
0111
,
0011
0000
0100
0000
0111
0000
1110
0000
0111
0000
1111
0000
,
1110
0000
0000
0000
0000
0000
1011
0000
0000
0000
0000
0000
1102
1103
0020
0031
2201
3301
0000
0221
1331
0000
1100
0010
,
0010
0000
0000
0000
0000
0000
0000
0000
1110
0000
0000
0000
0000
0000
0000
0000
0000
0000
0000
0000
0000
0000
0000
0000
0000
0000
0000
0000
0000
0000
0000
0000
0000
0000
0000
0000
0000
0000
0000
0000
0000
0000
0000
0000
0000
0000
0000
0000
0000
0000
0000
2220
0000
0000
3330
0000
0000
0000
0000
0000
0220
0000
0000
2331
0000
0000
3220
0000
0000
0330
0000
0000
0001
0000
0000
0011
0010
0000
0010
0000
2110
0110
0000
0000
3122
0000
0000
1100
2033
0000
0010
0000
3010
1110
0000
0000
1110
0000
0000
0000
0022
0000
0000
0000
2033
0000
0000
0000
3011
0000
0000
0000
1111
0000
0000
0000
0000
0000
0000
0000
0000
0000
0000
0000
0000
0000
0000
0000
0000
0000
0000
0000
0000
0000
0000
0000
0000
0000
0000
0000
0000
0000
0000
0000
1111
0000
0000
0000
0000
0000
0000
0000
1111
0000
0000
0000
0000
0000
0000
0000
1120
0000
0000
0000
0000
0000
0000
0000
0031
0000
0000
0000
0000
0000
0000
0000
0002
0000
0000
0000
0000
0000
0000
0000
0003
0000
0000
0000
0000
0000
0000
0000
,
0000
0000
2200
0000
3300
0000
2010
0000
3111
0000
0000
0000
1112
0000
0003
0000
0010
0000
0002
0000
1123
0000
0032
0000
0023
0000
0030
0001
0000
0000
0100
0000
0000
0000
0000
0000
0100
0000
0000
0022
0000
0000
0033
0000
0000
0000
0000
0000
,
0022
0000
0000
2233
0000
0000
3310
0000
0000
0020
0000
0000
2031
0000
0000
0010
3122
0000
0033
0000
0011
0000
2220
0000
3330
0000
1122
0000
2033
0000
3010
0000
1022
0000
0033
0000
1102
0000
0020
0100
0003
0000
0000
0000
2232
0000
3300
0000
,
2223
0030
3311
0122
0233
0011
0301
0000
0001
2200
3312
2203
3302
0023
0030
0010
0022
2233
3302
0003
2221
3330
2222
3333
,
0001
2221
3331
2200
3322
0033
0000
2200
3000
0320
0031
2220
3331
2200
3310
0220
0330
0110
0002
2023
3002
0033
0000
0000
,
0000
0000
0000
0000
0000
0000
1111
0000
0000
1011
0000
0000
0002
0000
0000
2223
0000
0000
3331
0000
0000
1102
0000
0000
0003
0000
0000
2221
0000
0000
3330
0000
0000
0000
0000
0000
0220
0000
0000
0330
0000
0000
0000
0000
0000
0000
0000
0000
0111
0000
0000
0000
0000
0000
0000
0000
0011
0000
0000
0000
0000
0000
0000
0000
0000
0000
0000
0000
0000
0000
0000
0000
2220
0000
0000
0000
0000
0000
0000
0000
3330
0000
0000
0000
0000
0000
0000
0000
0000
0000
0000
0000
0000
0000
0000
0000
0000
0000
0000
0000
0000
0000
0000
0000
0000
0000
0000
0000
0000
0000
0000
0000
0000
0000
0000
0000
0000
0000
0000
0000
2220
0000
0000
0000
0000
0000
0000
0000
3331
0000
0000
0000
0000
0000
0000
0000
1122
0000
0000
0000
0000
0000
0000
0000
2033
0000
0000
0000
0000
0000
0000
0000
3110
0000
0000
0000
0000
0000
0000
0000
0021
0000
0000
0000
0000
0000
0000
0000
0000
0000
0000
0000
0000
0000
0000
0000
0230
0000
0000
0000
0000
0000
0000
0000
0320
0000
0000
0000
0000
0000
0000
0000
,
0202
0333
2000
3100
0120
0002
0030
2220
3333
0010
0002
2203
3302
0020
1133
0000
1112
2203
3300
0012
2203
3300
0010
0002
,
0023
0031
0112
2103
3002
2223
3331
1111
1110
1101
1111
0110
0012
0013
0001
0020
0030
0010
2221
3332
2203
3300
0100
0100
,
0002
0000
0023
0000
2031
0000
3200
0000
0022
0000
2333
0000
3112
0000
1223
0000
0331
0000
1220
0000
0332
0000
2203
0000
3311
0000
0000
0000
1000
0000
1110
0000
2000
0010
3000
0000
1100
0000
0000
1110
2201
0000
3300
0000
0001
0000
0000
0000
,
0000
0022
2233
3312
0013
0002
0003
0000
0000
0201
2022
3333
0000
1112
1113
1111
0220
0331
0102
0003
2201
0000
3300
1000
2200
3300
0020
0032
2003
0220
3332
0023
0031
2220
3330
0102
2223
3331
2000
3000
2120
3032
2223
3331
1112
0203
1312
0003
0000
0222
2333
3110
2222
3333
1102
2223
3332
2220
3333
0000
0000
0000
0000
0000
,
0000
1111
2200
3322
0033
0000
0020
0030
0000
0000
0020
0032
0003
2200
3022
0333
0020
0030
0000
0200
0300
0000
0002
2213
,
3300
0000
1222
0333
1112
0023
0030
0010
1020
0032
0003
2220
3331
0020
0032
2023
3031
2000
3122
0033
0010
0000
0020
2200
,
0030
0000
0000
0000
0000
0000
0000
0000
0320
0000
0000
0000
0000
0000
0000
0000
3030
0000
0000
0000
0000
0000
0000
0000
2220
0000
0000
0000
0000
0000
0000
0000
3302
0000
0000
0000
0000
0000
0000
0000
0233
0000
0000
0000
0000
0000
0000
0000
2300
0000
0000
0000
0000
0000
0000
0000
0200
0000
0000
0000
0000
0000
0000
0000
3300
0000
0000
0000
0000
0000
0000
0000
1100
0000
0000
0000
0000
0000
0000
0000
1110
0000
0000
0000
0000
0000
0000
0000
0000
0000
0000
0000
0000
0000
0000
0000
0000
0000
0000
0000
0000
0000
0000
0000
0012
0000
0000
0000
0000
0000
0000
0000
0013
0000
0000
0000
0000
0000
0000
0000
0001
0000
0000
0000
0000
0000
0000
0000
0011
0000
0000
0000
0000
0000
0000
0000
0000
0000
0002
0000
0000
0000
0000
0000
0003
0000
0000
0200
1000
0000
0322
0000
0000
0033
0000
0000
0000
0000
0000
0000
0000
0000
0020
0000
0000
0032
0000
0000
0013
0000
0000
0000
0000
0000
2200
0000
0000
3320
0000
0000
0031
0000
0000
2000
0000
0000
3112
0000
0000
0023
0000
0000
,
0030
0000
0000
0010
0000
0000
0010
0000
1000
0000
0000
0000
0000
0000
0000
0000
1000
0000
1000
0000
0000
0100
0000
0000
0010
0000
0000
0001
0000
0000
0000
0000
1000
0122
0000
0000
0033
0000
0000
0010
2220
0000
0000
0000
0000
0000
0000
0000
3331
0000
0000
0000
0000
0000
0000
0000
0000
0000
0000
0000
0000
0000
0000
0000
0020
0000
0000
0000
0000
0000
0000
0000
0032
0000
0000
0000
0000
0000
0000
0000
0023
0000
0000
0000
0000
0000
0000
0000
2030
0000
0000
0000
0000
0000
0000
0000
3001
0000
0000
0000
0000
0000
0000
0000
0001
0000
0000
0000
0001
0000
0000
0000
0000
0000
0000
0000
0000
0000
0000
0000
0000
0000
0000
0000
0000
0000
0000
0000
0000
0000
0000
0000
1220
0000
0000
0000
0000
0000
0000
0000
0000
0000
0000
0000
0332
0000
0000
0000
0000
0000
0000
0000
0000
0000
0000
0000
0003
0000
0000
0000
0000
0000
0000
0000
0000
0000
0000
0000
0000
0000
0000
0000
0000
0000
0000
0000
0000
0000
0000
0000
1000
0000
0000
0000
1000
0000
0000
0000
2010
0000
0000
0000
,
3100
0000
0000
1110
0000
0000
1102
0000
0000
1103
0000
0000
1111
0000
0000
1110
0000
0000
1112
0000
0000
1103
0000
0000
1122
0000
0000
2233
0000
0000
3302
0000
0000
0003
0000
0000
0001
0000
0000
0000
0000
0000
0000
0000
0000
0000
0000
0000
0000
0000
0000
0000
0000
0000
0000
0000
0000
0000
0000
0000
0000
0000
0000
0000
2200
0000
0000
0000
0000
0000
0000
0000
3000
0000
0000
0000
0000
0000
0000
0000
0310
0000
0000
0000
0000
0000
0000
0000
0200
0000
0000
0000
0000
0000
0000
0000
0300
0000
0000
0000
0000
0000
0000
0000
0000
0000
0000
0000
0000
0000
0000
0000
0020
0000
0000
0000
0000
0000
0000
0000
0230
0000
0000
0000
0000
0000
0000
0000
0320
0000
0000
0000
0000
0000
0000
0000
0030
0000
0000
0000
0000
0000
0000
0000
0100
0000
0000
0000
0000
0000
0000
0000
0020
0000
0000
0000
0000
0000
0000
0000
0030
0000
0000
0000
0000
0000
0000
0000
0002
0000
0000
0000
0000
0000
0000
0000
0023
0000
0000
0000
0000
0000
0000
0000
0030
0000
0000
0000
0000
0000
0000
0000
,
0000
1100
0000
0102
0023
0032
0023
2200
3330
1000
0200
0300
0022
2233
3302
0003
2221
3332
1003
2221
3331
1020
0231
1312
,
1003
0002
0023
0032
2223
0330
0200
3302
0003
0001
1111
1120
0030
0002
0023
0030
2200
3300
0010
0010
0010
0010
0010
0010
,
0010
0000
0000
0000
0000
0000
0000
0000
1110
0000
0000
0000
0000
0000
0000
0000
1110
0000
0000
0000
0000
0000
0000
0000
1110
0000
0000
0000
0000
0000
0110
0000
0000
0000
0000
0000
0010
0000
0000
0000
0000
0000
0010
0000
0000
0000
0000
0000
0010
0000
0000
0000
0000
0000
1112
0000
0000
0000
0000
0000
2223
0000
0000
0000
0000
0000
3330
0000
0000
0000
0000
0000
1110
0000
0000
0000
0000
0000
0120
0000
0000
0000
0000
0000
0031
0000
0000
0000
0000
0000
0001
0000
0000
0000
0000
0000
0001
0000
0000
0000
0000
0000
0001
0000
0000
0000
0000
0000
0020
0000
0000
0000
0200
0000
0000
0000
2030
0000
0000
0000
0300
0000
0000
0000
3002
0000
0000
0000
0000
0000
0000
0000
0023
0000
0000
0000
0030
0000
2000
0000
0000
0000
0000
0000
0200
0000
0000
0000
3000
0000
0310
0000
0000
0000
0000
0000
1110
0000
0000
0000
0000
0000
1110
0000
0000
0000
0000
0000
1000
0000
0000
0000
0000
0000
2222
0000
0000
0000
0000
0000
3333
0000
0000
0000
0000
0000
0000
0000
2000
0000
0000
0000
,
0200
0000
0000
0000
3022
0000
0000
0000
0333
0000
0000
0000
0000
0000
0000
0000
0000
0000
0000
0000
0000
0000
0000
0000
0000
0000
0000
0000
0000
0000
0000
0000
0000
0020
0000
0000
0030
0000
0000
0000
0000
0000
0002
0000
0000
0003
0000
0000
0002
0000
0000
2203
0000
0000
3320
0000
0000
0031
0000
0000
0110
0000
0000
0111
0000
0000
0000
0000
0000
0022
0000
0000
0033
0000
0000
1000
0000
0000
0012
0000
0000
0003
0000
0000
1101
0000
0000
1101
0000
0000
1111
0000
0000
1111
0000
0000
0100
0000
0000
0001
0000
0000
0010
0000
0000
0011
0000
0000
0011
0000
0000
0010
0000
0000
1000
0000
0000
0000
0000
0000
2000
0000
0000
3000
0000
0000
0022
0000
0000
0033
0000
0000
2000
0000
0000
3100
0000
0000
0112
0000
0000
0023
0000
0000
0130
0000
0000
0200
0000
0000
0300
0000
0000
0000
0000
0000
0200
0000
0000
0300
0000
0000
0000
0000
0000
0020
0000
0000
0030
0000
0000
0022
0000
0000
0033
0000
0000
0011
0000
0000
0000
0000
0000
0000
0000
0000
0000
0000
0000
0000
0000
0000
,
0000
0000
0000
0000
0000
0000
0000
0000
1111
1111
1111
0000
0012
0000
0003
0000
0011
0000
0001
0000
1112
0000
0003
0000
0000
0000
0020
0000
0030
0000
2000
0000
3000
0000
0200
0000
0310
0000
0011
0000
0010
0000
0010
0000
0012
0000
0003
0000
,
0002
0003
0000
0020
2031
3000
1010
0110
1110
1200
0302
0003
2200
3302
0023
2031
3100
1102
1203
0320
0030
0100
0010
0011
,
2200
3312
2203
3312
0023
2231
3312
0003
0000
1111
0012
0003
0000
2200
3322
2033
3220
0330
0010
0010
0010
0010
1102
1103
,
0021
0000
0000
0000
0000
0000
0000
0000
2030
0000
0000
0000
0000
0000
0000
0000
3000
0000
0000
0000
0000
0000
0000
0000
2000
0000
0000
0000
0000
0000
0000
0000
3000
0000
0000
0000
0000
0000
0000
0000
0000
0000
0000
0000
0000
0000
0000
0000
0021
0000
0000
0000
0000
0000
0000
0000
0031
0000
0000
0000
0000
0000
0000
0000
0102
0000
0000
0000
0000
0000
0000
0000
2223
0000
0000
0000
0000
0000
0000
0000
3331
0000
0000
0000
0000
0000
0000
0000
1112
0000
0000
0000
0000
0000
0000
0000
0023
0000
0000
0000
0000
0000
0000
0000
0030
0000
0000
0000
0000
0000
0000
0000
0010
0000
0000
0000
0000
0000
0000
0000
0010
0000
0000
0000
0000
0000
0000
0000
0012
0000
0000
0000
0000
0000
0000
0000
0003
0000
0000
0000
0000
0000
0000
0000
0000
0000
0000
2112
0000
0000
3013
0000
1000
1111
0000
0000
1222
0000
0000
1333
0000
0000
1222
0000
0000
1333
0000
0000
2000
0000
0000
3000
0000
0000
0000
0000
0000
2222
0000
0000
3333
0000
0000
0000
1100
0000
0002
0000
0000
1113
0000
0000
,
2221
0000
0000
3332
0000
0000
0103
0000
2000
0221
0000
0000
0330
0000
0000
0000
3011
0000
0000
0000
0000
0000
0000
0000
1102
0000
0000
0000
0000
0000
0000
0000
0123
0000
0000
0000
0000
0000
0000
0000
0031
0000
0000
0000
0000
0000
0000
0000
0000
0000
0000
0000
0000
0000
0000
0000
0000
0000
0000
0000
0000
0000
0000
0000
1112
0000
0000
0000
0000
0000
0000
0000
1013
0000
0000
0000
0000
0000
0000
0000
0011
0000
0000
0000
0000
0000
0000
0000
0010
0000
0000
0000
0000
0000
0000
0000
0021
0000
0000
0000
0000
0000
0000
0000
0030
0000
0000
0000
0000
0000
0000
0000
0000
0000
0000
0000
0000
0000
0000
0000
0202
0000
0000
0000
0000
0000
0000
0000
2013
0000
0000
0000
0000
0000
0000
0000
0300
0000
0000
0000
0000
0000
0000
0000
3022
0000
0000
0000
0000
0000
0000
0000
0003
0000
0000
0000
0000
0000
0000
0000
0032
0000
0000
0000
0000
0000
0000
0000
0123
0000
0000
0000
0000
0000
0000
0000
0032
0000
0000
0000
0000
0000
0000
0000
0003
0000
0000
0000
0000
0000
0000
0000
,
1102
0003
2012
0213
3020
0332
2203
0000
3322
2033
0200
3322
0033
1200
0320
0032
0013
0001
0002
0023
0030
0001
0021
1030
,
0100
0000
0000
1110
1010
0000
2000
3220
0332
0003
0020
0030
0002
0000
0003
0020
0030
0020
0030
1000
2000
3000
0012
0003
,
0001
0000
0000
0000
0000
0000
0000
0000
0000
0000
0000
0000
2200
0000
0000
0000
0000
0000
3300
0000
0020
0000
0000
0000
0032
0000
0000
0000
2003
0000
0000
0000
0220
0000
0000
0000
3331
0000
0000
0000
1220
0000
0000
0000
0330
0000
0000
0000
0012
0000
0000
0000
0023
0000
0000
0000
0031
0000
0000
0000
0000
0000
0000
0000
0000
0000
0000
0000
0000
0000
0000
0000
0000
0000
0000
0000
0000
0000
0000
0000
0000
0000
0000
0000
1112
0000
0000
0000
0000
0000
0000
0000
0000
0000
0000
0000
0023
0000
0000
0000
0000
0000
0000
0000
0000
0000
0000
0000
0031
0000
0000
0000
0000
0000
0000
0000
0000
0000
0000
0000
0010
0000
0000
0000
0000
0000
0000
0000
0000
0000
0000
0000
0001
0000
0000
0000
0000
0000
0000
0000
0000
0000
0000
0000
2200
0000
0000
0000
0000
0000
0000
0000
0000
0000
0000
0000
3311
0000
0000
0000
0000
0000
0000
0000
0000
0000
0000
0000
2220
0000
0000
0000
0000
0000
0000
0000
0000
0000
0000
0000
3331
0000
0000
0000
0000
0000
0000
0000
0000
0000
0000
0000
,
0011
0000
0000
0000
0011
0000
0000
0000
1011
0000
0000
0000
0000
0000
0002
0003
0021
2031
3102
0023
2031
3112
0003
0000
1112
2223
3331
2000
3000
0000
0000
0000
2200
3311
2220
3331
1000
0000
0000
0000
1111
0000
0000
0000
0000
0020
2230
3300
1111
0000
0000
0000
2222
3333
1111
0000
0000
0000
0000
0000
0000
0000
0000
0000
,
0000
2200
0000
3302
2000
0003
0020
3030
,
0002
0000
0000
0003
0220
0330
0220
0330
,
0220
0000
0000
0000
,
0000
0330
2001
0000
0000
0002
0000
3000
,
0000
0000
0000
2000
0000
0000
3000
0003
,
0021
0032
2003
0000
0000
3000
0200
0300
,
0021
0000
0000
0000
0030
2000
0020
3000
,
0000
0000
0030
0020
0000
0000
0000
0000
0000
0230
0000
0000
,
0301
2222
0000
0000
,
0000
0000
0000
0000
,
0000
0000
0000
0000
,
0000
0000
3333
0000
;

//---------------dance-single - Anf'nger----------------
#NOTES:
     dance-single:
     Anf'nger:
     Beginner:
     10:
     0.815,0.790,0.320,0.282,1.000,934.000,59.000,52.000,0.000,1.000:
0033
0000
0000
0000
0000
0000
0330
0000
0000
3300
0000
0000
0330
0000
0000
0000
,
0000
0000
0000
0000
0000
0000
0000
0000
0000
0000
0000
0000
0000
0000
0000
0000
0000
0000
0000
0000
0000
0000
0000
0000
0303
0000
0000
0000
0000
0000
0000
0000
0000
0000
0000
0000
0000
0000
0000
0000
0000
0000
0000
0000
0000
0000
0000
0000
0000
0000
0000
0000
0000
2020
3030
0000
0000
0000
0000
0000
0000
0000
0000
0000
0000
0000
0000
0000
0000
0000
0000
2002
3003
0000
0000
0000
0000
0000
0000
0000
0000
0000
0000
0000
0000
0000
0000
0000
0000
0000
0000
0000
0000
0000
0000
0000
0000
0000
0000
0000
0000
0000
0000
0000
0000
0000
0000
0022
0033
0000
0000
0000
0000
0000
0000
0000
0000
0000
0000
0000
0000
0000
0000
0000
0000
2200
3300
0000
0000
0000
0000
0000
0000
0000
0000
0000
0000
0000
0000
0000
0000
0000
0000
0220
0330
0000
0000
0000
0000
0000
0000
0000
0000
0000
0000
0000
0000
0000
0000
0000
0000
0000
0000
0000
0000
0000
0000
0000
0000
0000
2000
3000
0000
0000
0002
0003
0000
0000
0000
2002
3003
0000
0000
0000
0000
0000
0000
0000
0000
0000
0000
0000
,
0000
0000
0000
0000
0000
0000
0000
0000
0000
0000
0000
0000
0000
0000
0000
0000
0000
0000
0000
0000
0000
0000
0000
0220
0330
0000
0000
0000
0000
0000
0000
0000
0000
0000
0000
0000
0000
0000
0000
0000
0000
0000
0000
0000
0000
0000
0000
0000
0000
0000
0000
0000
0000
0000
0000
0000
0000
0000
0000
0202
0303
0000
0000
0000
0000
0000
0000
0000
0000
0000
0000
0000
0000
0000
0000
0000
0000
2020
3030
0000
0000
0000
0000
0000
0000
0000
0000
0000
0000
0000
0000
0000
0000
0000
0000
0220
0330
0000
0000
0000
0000
0000
0000
0000
0000
0000
0000
0000
0000
0000
0000
0000
0000
0000
0000
0000
0000
0000
0000
0000
0000
0000
0000
0000
0000
0000
0000
0000
0000
0000
0000
0022
0033
0000
0000
0000
0000
0000
0000
0000
0000
0000
0000
0000
0000
0000
0000
0000
0000
2200
3300
0000
0000
0000
0000
0000
0000
0000
0000
0000
0000
0000
0000
0000
0000
0000
0000
0220
0330
0000
0000
0000
0000
0000
0000
0000
0000
0000
0000
0000
0000
0000
0000
0000
0000
0000
0000
0000
0000
0000
0000
0000
,
0000
0000
0000
0000
0000
0000
0000
0000
0000
0000
0000
2020
3030
0000
0000
0000
0000
0000
0000
0000
0000
0000
0000
0000
0000
0000
0000
0000
0000
0202
0303
0000
0000
0000
0000
0000
0000
0000
0000
0000
0000
0000
0000
0000
0000
0000
0000
2002
3003
0000
0000
0000
0000
0000
0000
0000
0000
0000
0000
0000
0000
0000
0000
0000
0000
0000
0000
0000
0000
0000
0000
0000
0000
0000
0000
0000
0000
0000
0000
0000
0000
0000
0000
0220
0330
0000
0000
0000
0000
0000
0000
0000
0000
0000
0000
0000
0000
0000
0000
0000
0000
0000
0000
0000
0000
0000
0000
0000
0000
0000
0000
0000
0000
0000
0000
0000
0000
0000
0000
1000
0000
0000
0000
0100
0000
0000
0000
0000
0010
0000
0000
0000
0000
0000
0000
0000
0000
0000
0000
0000
0000
0000
0000
0000
0000
0000
0010
0000
0000
0000
0100
0000
0000
0000
0000
1000
0000
0000
0000
0010
0000
0000
0000
0000
0100
0000
0000
0000
0010
0000
0000
0000
0000
0001
0000
0000
0000
0100
0000
0000
0000
0000
0010
0000
0000
0000
0100
0000
0000
0000
0000
0001
,
0000
0000
0000
0100
0000
0000
0000
0000
1000
0000
0000
0000
0000
0000
0000
0000
0000
0000
0000
0000
0000
0000
0000
0000
0000
0000
0001
0000
0000
0000
1000
0000
0000
0000
0000
0100
0000
0000
0000
0001
0000
0000
0000
0000
1000
0000
0000
0000
0001
0000
0000
0000
0000
0010
0000
0000
0000
1000
0000
0000
0000
0000
0001
0000
0000
0000
1000
0000
0000
0000
0000
0010
0000
0000
0000
0001
0000
0000
0000
0000
0100
0000
0000
0000
0000
0000
0000
0000
0000
0000
0000
0000
0000
0000
0000
0000
0000
0000
0100
0000
0000
0000
0010
0000
0000
0000
0000
0001
0000
0000
0000
0010
0000
0000
0000
0000
0100
0000
0000
0000
0010
0000
0000
0000
0000
1000
0000
0000
0000
0100
0000
0000
0000
0000
0010
0000
0000
0000
0100
0000
0000
0000
0000
0001
0000
0000
0000
0000
0000
0000
0000
0000
0000
0000
0000
0000
0110
0000
0000
0000
0000
0000
0000
0000
0000
0000
0000
0000
0000
0000
1000
0000
0000
0000
0001
0000
0000
0000
0000
0100
0000
0000
0000
1000
0000
0000
0000
0000
0010
0000
0000
0000
,
0001
0000
0000
0000
0000
0100
0000
0000
0000
1000
0000
0000
0000
0000
0010
0000
0000
0001
0000
0000
1000
0000
0000
0110
0000
0000
0000
1000
0000
0000
0000
0000
0010
0000
0000
0000
0000
0000
0000
0000
0000
0000
0000
0000
0000
0000
0000
0000
0000
0000
0001
0000
0000
0000
0100
0000
0000
0000
0000
0001
0000
0000
0000
0010
0000
0000
0000
0000
0100
0000
0000
0000
0010
0000
0000
0000
0000
0001
0000
0000
0000
0100
0000
0000
0000
0000
0010
0000
0000
0000
0100
0000
0000
0000
0000
1000
0000
0000
0000
0010
0000
0000
0000
0000
0001
0000
0000
0000
0000
0000
0000
0000
0000
0000
0000
0000
0000
0000
0000
0000
0000
0000
0100
0000
0000
0000
0001
0000
0000
0000
0000
0010
0000
0000
0000
1000
0000
0000
0000
0000
0001
0000
0000
0000
1000
0000
0000
0000
0000
0010
0000
0000
0000
0001
0000
0000
0000
0000
1000
0000
0000
0000
0001
0000
0000
0000
0000
0010
0000
0000
0000
1000
0000
0000
0000
0000
0001
0000
0000
0000
0000
0000
0000
0000
0000
0000
0000
0000
0000
0000
0000
0000
,
0000
0000
1000
0000
0000
0000
0010
0000
0000
0000
0000
0001
0000
0000
0000
0010
0000
0000
0000
0000
0100
0000
0000
0000
0010
0000
0000
0000
0000
0001
0000
0000
0000
0100
0000
0000
0000
0000
1000
0000
0000
0000
0100
0000
0000
0000
0000
0010
0000
0000
0000
0000
0000
0000
0000
0000
0000
0000
0000
0000
1001
0000
0000
0000
0000
0000
0000
0000
0000
0000
0000
0000
0000
0000
0100
0000
0000
0000
1000
0000
0000
0000
0000
0001
0000
0000
0010
0000
0000
0100
0000
0000
1000
0000
0000
0000
0000
0000
0000
0000
0000
1000
0000
0000
0000
0100
0000
0000
0000
0000
0010
0000
0000
0000
0001
0000
0000
0000
0000
1001
0000
0000
0010
0000
0000
0100
0000
0000
0001
0000
0000
0100
0000
0000
0010
0000
0000
1000
0000
0000
0010
0000
0000
0100
0000
0000
1000
0000
0000
0100
0000
0000
0010
0000
0000
0001
0000
0000
0010
0000
0000
0100
0000
0000
0001
0000
0000
0100
0000
0000
0010
0000
0000
1000
0000
0000
0010
0000
0000
0100
0000
0000
1000
0000
0000
0000
0000
0000
0000
0000
0000
0010
,
0000
0000
1000
0000
0000
0001
0000
0000
0010
0000
0000
0001
0000
0000
1000
0000
0000
0100
0000
0000
1000
0000
0000
0001
0000
0000
0100
0000
0000
0001
0000
0000
1000
0000
0000
0010
0000
0000
1000
0000
0000
0001
0000
0000
0010
0000
0000
0001
0000
0000
1000
0000
0000
0100
0000
0000
1000
0000
0000
0001
0000
0000
0100
0000
0000
0000
0000
0000
0000
0000
0000
0010
0000
0000
0001
0000
0000
1000
0000
0000
0100
0000
0000
1000
0000
0000
0001
0000
0000
0100
0000
0000
0001
0000
0000
1000
0000
0000
0010
0000
0000
1000
0000
0000
0001
0000
0000
0010
0000
0000
0001
0000
0000
1000
0000
0000
0100
0000
0000
1000
0000
0000
0001
0000
0000
0100
0000
0000
0001
0000
0000
1000
0000
0000
0010
0000
0000
0000
0000
0000
0000
0000
0000
0001
0000
0000
0100
0000
0000
0010
0000
0000
1000
0000
0000
0000
0000
0000
0000
0000
0000
1000
0000
0000
0100
0000
0000
0010
0000
0000
0001
0000
0000
0000
0000
0000
0000
0000
0000
0001
0000
0000
0000
0010
0000
0000
0000
0000
1000
0000
0000
0000
,
0100
0000
0000
0000
0000
1000
0000
0000
0000
0100
0000
0000
0000
0000
0010
0000
0000
0001
0000
0000
0010
0000
0000
0100
0000
0000
0000
1000
0000
0000
0000
0000
0001
0000
0000
0000
0000
0000
0000
0000
0000
0000
0000
0000
0000
1000
0000
0000
0000
0000
0001
0000
0000
0000
0100
0000
0000
0000
0000
0010
0000
0000
0000
0001
0000
0000
0000
0000
1000
0000
0000
0000
0100
0000
0000
0000
0000
0010
0000
0000
0000
0001
0000
0000
0000
0000
1000
0000
0000
0000
0100
0000
0000
0000
0000
0010
0000
0000
0000
0100
0000
0000
0000
0000
1000
0000
0000
0000
0000
0000
0000
0000
0000
0000
0000
0000
0000
0100
0000
0000
0000
0000
1000
0000
0000
0000
0010
0000
0000
0000
0000
0001
0000
0000
0000
0100
0000
0000
0000
0000
1000
0000
0000
0000
0001
0000
0000
0000
0000
0010
0000
0000
0000
0100
0000
0000
0000
0000
1000
0000
0000
0000
0010
0000
0000
0000
0000
0001
0000
0000
0000
0100
0000
0000
0000
0000
1000
0000
0000
0000
0000
0000
0000
0000
0000
0000
0000
0000
0000
1000
0000
0000
,
0000
0000
0001
0000
0000
0000
0010
0000
0000
0000
0000
0100
0000
0000
0000
0010
0000
0000
0000
0000
0001
0000
0000
0000
0100
0000
0000
0000
0000
1000
0000
0000
0000
0010
0000
0000
0000
0000
0001
0000
0000
0000
1000
0000
0000
0000
0000
0100
0000
0000
0000
0000
0000
0000
0000
0000
0000
0000
0000
0000
1001
0000
0000
0000
0000
0000
0000
0000
0000
0010
0000
0000
0000
0000
0001
0000
0000
0000
0010
0000
0000
0000
0000
1000
0000
0000
0000
0100
0000
0000
0000
0000
0010
0000
0000
0000
0001
0000
0000
0000
0000
1000
0000
0000
0100
0000
0000
0010
0000
0000
0001
0000
0000
0010
0000
0000
0100
0000
0000
1001
0000
0000
0001
0000
0000
1000
0000
0000
0010
0000
0000
0000
0000
0000
0000
0000
0000
0000
0000
0000
0000
0000
0000
0000
0000
0000
0100
0000
0000
0001
0000
0000
0010
0000
0000
1000
0000
0000
0010
0000
0000
0001
0000
0000
0010
0000
0000
0001
0000
0000
0100
0000
0000
0001
0000
0000
0100
0000
0000
1000
0000
0000
0010
0000
0000
1000
0000
0000
0100
0000
0000
0010
,
0000
0000
0100
0000
0000
0001
0000
0000
1000
0000
0000
0000
0000
0000
0000
0000
0000
0000
0000
0000
0000
0000
0000
0000
0000
0000
1000
0000
0000
0001
0000
0000
1000
0000
0000
0001
0000
0000
1000
0000
0000
0010
0000
0000
0100
0000
0000
0010
0000
0000
1000
0000
0000
0001
0000
0000
1000
0000
0000
0010
0000
0000
0100
0000
0000
0010
0000
0000
0100
0000
0000
1000
0000
0000
0100
0000
0000
0001
0000
0000
0010
0000
0000
0000
0000
0000
0000
0000
0000
0000
0000
0000
0000
0000
0000
0000
0000
0000
0010
0000
0000
1000
0000
0000
0100
0000
0000
0001
0000
0000
0100
0000
0000
1000
0000
0000
0010
0000
0000
1000
0000
0000
0010
0000
0000
0001
0000
0000
0010
0000
0000
0001
0000
0000
0010
0000
0000
0001
0000
0000
1000
0000
0000
0010
0000
0000
1000
0000
0000
0010
0000
0000
0100
0000
0000
0000
0000
0000
0000
0000
0000
1000
0000
0000
0010
0000
0000
0100
0000
0000
0001
0000
0000
0000
0000
0000
0000
0000
0000
0001
0000
0000
0000
0010
0000
0000
0000
0000
0100
0000
0000
0000
,
1000
0000
0000
0000
0000
0100
0000
0000
0000
0010
0000
0000
0000
0000
0001
0000
0000
0000
0000
0000
0000
0000
0000
2000
0000
0000
0000
0010
0000
0000
0000
0000
0001
0000
0000
0000
0010
0000
0000
0000
0000
0100
0000
0000
0000
0010
0000
0000
0000
0000
0001
0000
0000
0000
0010
0000
0000
0000
0000
0100
0000
0000
0000
0010
0000
0000
0000
0000
0001
0000
0000
0000
0010
0000
0000
0000
0000
0100
0000
0000
0000
0010
0000
0000
0000
0000
0001
0000
0000
0000
0010
0000
0000
0000
0000
0200
3000
0000
0000
0001
0000
0000
0000
0000
0010
0000
0000
0000
1000
0000
0000
0000
0000
0010
0000
0000
0000
0001
0000
0000
0000
0000
0010
0000
0000
0000
1000
0000
0000
0000
0000
0010
0000
0000
0000
0001
0000
0000
0000
0000
0010
0000
0000
0000
1000
0000
0000
0000
0000
0010
0000
0000
0000
0001
0000
0000
0000
0000
0010
0000
0000
0000
1000
0000
0000
0000
0000
0020
0300
0000
0000
1000
0000
0000
0000
0000
0100
0000
0000
0000
0001
0000
0000
0000
0000
0100
0000
0000
0000
1000
0000
0000
,
0000
0000
0100
0000
0000
0000
0001
0000
0000
0000
0000
0100
0000
0000
0000
1000
0000
0000
0000
0000
0100
0000
0000
0000
0001
0000
0000
0000
0000
0100
0000
0000
0000
1000
0000
0000
0000
0000
0100
0000
0000
0000
0001
0000
0000
0000
0000
0002
0030
0000
0000
0100
0000
0000
0000
0000
1000
0000
0000
0000
0100
0000
0000
0000
0000
0010
0000
0000
0000
0100
0000
0000
0000
0000
1000
0000
0000
0000
0100
0000
0000
0000
0000
1003
0000
0000
0000
0100
0000
0000
0000
0000
0001
0000
0000
0000
0010
0000
0000
0000
0000
1000
0000
0000
0000
0100
0000
0000
0000
0000
0001
0000
0000
0000
0010
0000
0000
0000
0000
1001
0000
0000
0000
0100
0000
0000
0000
0000
0001
0000
0000
0000
0010
0000
0000
0000
0000
0000
0000
0000
0000
0000
0000
0000
0000
0000
1000
0000
0000
0000
0010
0000
0000
0000
0000
1000
0000
0000
0000
0100
0000
0000
0000
0000
0001
0000
0000
0000
0010
0000
0000
0000
0000
0001
0000
0000
0000
0100
0000
0000
0000
0000
1000
0000
0000
0000
0001
0000
0000
0000
0000
0100
,
0000
0000
0000
1000
0000
0000
0000
0000
0010
0000
0000
0000
0001
0000
0000
0000
0000
0000
0000
0000
0000
0000
0000
0000
0000
0000
0100
0000
0000
0000
0001
0000
0000
0000
0000
0100
0000
0000
0000
1000
0000
0000
0000
0000
0010
0000
0000
0000
0001
0000
0000
0000
0000
0010
0000
0000
0000
1000
0000
0000
0000
0000
0100
0000
0000
0000
0001
0000
0000
0000
0000
0010
0000
0000
0000
1000
0000
0000
0000
0000
0010
0000
0000
0000
0100
0000
0000
0000
0000
0000
0000
0000
0000
0000
0000
0000
0000
0000
0001
0000
0000
0000
0100
0000
0000
0000
0000
0010
0000
0000
0000
1000
0000
0000
0000
0000
0010
0000
0000
0000
0100
0000
0000
0000
0000
0001
0000
0000
0000
1000
0000
0000
0000
0000
0001
0000
0000
0000
0010
0000
0000
0000
0000
0100
0000
0000
0000
0001
0000
0000
0000
0000
1000
0000
0000
0000
0010
0000
0000
0000
0000
0000
0000
0000
0000
0000
0000
0000
0000
0000
0100
0000
0000
0000
0010
0000
0000
0000
0000
0100
0000
0000
0000
0001
0000
0000
0000
0000
1000
0000
0000
0000
,
0010
0000
0000
0000
0000
1000
0000
0000
0001
0000
0000
0010
0000
0000
0100
0000
0000
0000
0010
0000
0000
0000
0000
0001
0000
0000
0000
0100
0000
0000
0000
0000
1000
0000
0000
0000
0010
0000
0000
0000
0000
0000
0000
0000
0000
0000
0000
0000
0000
0000
0001
0000
0000
0000
0010
0000
0000
0000
0000
0001
0000
0000
0000
0100
0000
0000
0000
0000
1000
0000
0000
0000
0010
0000
0000
0000
0000
1000
0000
0000
0000
0100
0000
0000
0000
0000
0001
0000
0000
0000
1000
0000
0000
0000
0000
0010
0000
0000
0000
0001
0000
0000
0000
0000
0100
0000
0000
0000
1000
0000
0000
0000
0000
0000
0000
0000
0000
0000
0000
0000
0000
0000
0010
0000
0000
0000
1000
0000
0000
0000
0000
0010
0000
0000
0000
0001
0000
0000
0000
0000
0100
0000
0000
0000
1000
0000
0000
0000
0000
0100
0000
0000
0000
0001
0000
0000
0000
0000
0010
0000
0000
1000
0000
0000
0001
0000
0000
0010
0000
0000
0000
0100
0000
0000
0000
0000
0010
0000
0000
0000
0001
0000
0000
0000
0000
0000
0000
0000
0000
0000
0000
0000
,
0000
0000
1000
0000
0000
0000
0001
0000
0000
0000
0000
0010
0000
0000
0000
0100
0000
0000
0000
0000
0010
0000
0000
0000
0001
0000
0000
0000
0000
1000
0000
0000
0000
0100
0000
0000
0000
0000
1000
0000
0000
0000
0010
0000
0000
0000
0000
0100
0000
0000
0000
1000
0000
0000
0000
0000
0001
0000
0000
0000
0010
0000
0000
0000
0000
0000
0000
0000
0000
0000
0000
0000
0000
0000
0100
0000
0000
0000
0010
0000
0000
0000
0000
1000
0000
0000
0100
0000
0000
0010
0000
0000
0001
0000
0000
0010
0000
0000
0100
0000
0000
1000
0000
0000
0000
0100
0000
0000
0000
0000
0010
0000
0000
0000
0001
0000
0000
0000
0000
1000
0000
0100
0000
0010
0000
0000
0000
0000
0100
0000
0010
0000
0001
0000
0000
0000
0000
0010
0000
0100
0000
1000
0000
0000
0000
0000
0001
0000
0010
0000
0100
0000
0000
0000
0000
1001
0000
0000
0000
0100
0000
0000
0000
0000
0010
0000
0000
0000
1000
0000
0000
0000
0000
0001
0000
0000
0000
0010
0000
0000
0000
0000
0100
0000
0000
0000
0001
0000
0000
0000
0000
1000
,
0000
0000
0000
0010
0000
0000
0000
0000
0100
0000
0000
0000
1000
0000
0000
0000
0000
0010
0000
0000
0000
0100
0000
0000
0000
0000
0001
0000
0000
0000
0010
0000
0000
0000
0000
1000
0000
0000
0000
0001
0000
0000
0000
0000
0100
0000
0000
0000
1000
0000
0000
0000
0000
0010
0000
0000
0000
0100
0000
0000
0000
0000
0001
0000
0000
0000
1000
0000
0000
0000
0000
0100
0000
0000
0000
0010
0000
0000
0000
0000
0001
0000
0000
0000
0100
0000
0000
0000
0000
1000
0000
0000
0000
0001
0000
0000
0000
0000
0010
0000
0000
0000
0001
0000
0000
0000
0000
0100
0000
0000
0000
1000
0000
0000
0000
0000
0001
0000
0000
0000
0010
0000
0000
0000
0000
0100
0000
0000
0000
0001
0000
0000
0000
0000
1000
0000
0000
0000
0010
0000
0000
0000
0000
0001
0000
0000
0000
1000
0000
0000
0000
0000
0010
0000
0000
0000
0001
0000
0000
0000
0000
0100
0000
0000
0000
1000
0000
0000
0000
0000
0010
0000
0000
0000
0100
0000
0000
0000
0000
1000
0000
0000
0000
0010
0000
0000
0000
0000
0001
0000
0000
0000
,
1000
0000
0000
0000
0000
0100
0000
0000
0000
0001
0000
0000
0000
0000
1000
0000
0000
0000
0100
0000
0000
0000
0000
0010
0000
0000
0000
1000
0000
0000
0000
0000
0010
0000
0000
0000
0001
0000
0000
0000
0000
1100
0000
0000
0000
0011
0000
0000
0000
0000
0110
0000
0000
0000
1001
0000
0000
0000
0000
2000
0000
0000
0000
0010
0000
0000
0000
0000
0001
0000
0000
0000
0010
0000
0000
0000
0000
0100
0000
0000
0000
0010
0000
0000
0000
0000
0001
0000
0000
0000
0010
0000
0000
0000
0000
0002
3000
0000
0000
0100
0000
0000
0000
0000
1000
0000
0000
0000
0100
0000
0000
0000
0000
0010
0000
0000
0000
0100
0000
0000
0000
0000
1000
0000
0000
0000
0100
0000
0000
0000
0000
0200
0003
0000
0000
1000
0000
0000
0000
0000
0010
0000
0000
0000
0001
0000
0000
0000
0000
0010
0000
0000
0000
1000
0000
0000
0000
0000
0010
0000
0000
0000
0001
0000
0000
0000
0000
0020
0300
0000
0000
0001
0000
0000
0000
0000
0100
0000
0000
0000
1000
0000
0000
0000
0000
0100
0000
0000
0000
0001
0000
0000
,
0000
0000
0100
0000
0000
0000
1000
0000
0000
0000
0000
1000
0030
0000
0100
0000
0000
0001
0000
0000
0010
0000
0000
0000
0000
0000
0000
0000
0000
0100
0000
0000
0001
0000
0000
0100
0000
0000
0010
0000
0000
0000
0000
0000
0000
0000
0000
0100
0000
0000
1000
0000
0000
0010
0000
0000
0001
0000
0000
0000
0000
0000
0000
0000
0000
0010
0000
0000
1000
0000
0000
0010
0000
0000
0100
0000
0000
0000
0000
0000
0000
0000
0000
0010
0000
0000
0001
0000
0000
1000
0000
0000
0100
0000
0000
0000
0000
0000
0000
0000
0000
0010
0000
0000
0001
0000
0000
1000
0000
0000
0100
0000
0000
0000
0000
0000
0000
0000
0000
1000
0000
0100
0000
0010
0000
0000
0001
0000
1000
0000
0000
0100
0000
0000
0010
0000
0000
1000
0000
0000
0100
0000
0000
0010
0000
0000
0001
0000
0000
0010
0000
0000
0100
0000
0000
1001
0000
0000
0000
1000
0000
0000
0000
0000
0001
0000
0000
0000
0100
0000
0000
0000
0000
1000
0000
0000
0000
0010
0000
0000
0000
0000
0100
0000
0000
0000
0001
0000
0000
0000
0000
0100
,
0000
0000
0000
0010
0000
0000
0000
0000
1000
0000
0000
0000
0100
0000
0000
0000
0000
0001
0000
0000
0000
1000
0000
0000
0000
0000
0010
0000
0000
0000
0000
0000
0000
0000
0000
1000
0000
0000
0000
0010
0000
0000
0000
0000
0100
0000
0000
0000
0001
0000
0000
0000
0000
1000
0000
0000
0000
0010
0000
0000
0000
0000
0001
0000
0000
0000
0100
0000
0000
0000
0000
0001
0000
0000
0000
1000
0000
0000
0000
0000
0010
0000
0000
0000
0000
0000
0000
0000
0000
1000
0000
0000
0000
0010
0000
0000
0000
0000
0100
0000
0000
0000
0000
0000
0000
0000
0000
1000
0000
0000
0000
0010
0000
0000
0000
0000
0001
0000
0000
0000
0100
0000
0000
0000
0000
0010
0000
0000
0000
1000
0000
0000
0000
0000
0001
0000
0000
0000
0100
0000
0000
0000
0000
1000
0000
0000
0000
0010
0000
0000
0000
0000
0100
0000
0000
0000
0001
0000
0000
0000
0000
1000
0000
0000
0000
0010
0000
0000
0000
0000
0001
0000
0000
0000
0000
0000
0000
0000
0000
0010
0000
0000
0000
1000
0000
0000
0000
0000
0001
0000
0000
0000
,
0100
0000
0000
0000
0000
1000
0000
0000
0000
0010
0000
0000
0000
0000
0100
0000
0000
0000
0001
0000
0000
0000
0000
1000
0000
0000
0000
0100
0000
0000
0000
0000
0001
0000
0000
0000
0010
0000
0000
0000
0000
1000
0000
0000
0100
0000
0000
0010
0000
0000
0001
0000
0000
0000
0100
0000
0000
0000
0000
0011
0000
0000
1000
0000
0000
0001
0000
0000
0100
0000
0000
0010
0000
0000
0100
0000
0000
0010
0000
0000
1000
0000
0000
0010
0000
0000
0100
0000
0000
0000
0000
0000
0000
0000
0000
0100
0000
0000
0010
0000
0000
0100
0000
0000
0010
0000
0000
0001
0000
0000
1000
0000
0000
0100
0000
0000
0010
0000
0000
0100
0000
0000
0010
0000
0000
0000
0000
0000
0000
0000
0000
1000
0000
0000
0001
0000
0000
1000
0000
0000
0001
0000
0000
0100
0000
0000
0010
0000
0000
1000
0000
0000
0001
0000
0000
0100
0000
0000
0001
0000
0000
0000
0000
0000
0000
0000
0000
0010
0000
0000
1000
0000
0000
0010
0000
0000
1000
0000
0000
0100
0000
0000
0001
0000
0000
0100
0000
0000
1000
0000
0000
0100
,
0000
0000
0001
0000
0000
0000
0000
0000
0000
0000
0000
0001
0000
0000
1000
0000
0000
0001
0000
0000
0100
0000
0000
0000
0000
0000
0000
0000
0000
1000
0000
0000
0100
0000
0000
1000
0000
0000
0010
0000
0000
0000
0000
0000
0000
0000
0000
0001
0000
0000
0010
0000
0000
0001
0000
0000
0100
0000
0000
0000
0000
0000
0000
0000
0000
1000
0000
0000
0100
0000
0000
1000
0000
0000
0010
0000
0000
0000
0000
0000
0000
0000
0000
1000
0000
0000
0000
0000
0000
0100
0000
0000
0000
0000
0000
0010
0000
0000
0000
0000
0000
0001
0000
0000
0000
0000
0000
0010
0000
0000
0000
0000
0000
0100
0000
0000
0000
0000
0000
0001
0000
0000
0000
0010
0000
0000
0000
0000
0100
0000
0000
0000
1000
0000
0000
0000
0000
0001
0000
0000
0010
0000
0000
0100
0000
0000
1000
0000
0000
0100
0000
0000
0010
0000
0000
0100
0000
0000
0000
0010
0000
0000
0000
0000
0001
0000
0000
0000
0000
0000
0000
0000
0000
0000
0000
0000
0000
0000
0000
0000
0000
0000
0010
0000
0000
0000
0100
0000
0000
0000
0000
0001
,
0000
0000
0000
0010
0000
0000
0000
0000
1000
0000
0000
0000
0100
0000
0000
0000
0000
0001
0000
0000
0000
0010
0000
0000
0000
0000
1000
0000
0000
0000
0001
0000
0000
0000
0000
0100
0000
0000
0000
0010
0000
0000
0000
0000
1000
0000
0000
0000
0000
0000
0000
0000
0000
0000
0000
0000
0000
0000
0000
0000
0000
0000
1000
0000
0000
0000
0100
0000
0000
0000
0000
0010
0000
0000
0000
1000
0000
0000
0000
0000
0001
0000
0000
0000
0100
0000
0000
0000
0000
0010
0000
0000
0000
1000
0000
0000
0000
0000
0001
0000
0000
0000
0010
0000
0000
0000
0000
0100
0000
0000
0000
1000
0000
0000
0000
0000
0010
0000
0000
0000
0000
0000
0000
0000
0000
0000
0000
0000
0000
0000
0000
0000
0000
0000
0001
0000
0000
0000
0100
0000
0000
0000
0000
0010
0000
0000
0000
0001
0000
0000
0000
0000
1000
0000
0000
0000
0010
0000
0000
0000
0000
0001
0000
0000
0000
1000
0000
0000
0000
0000
0100
0000
0000
0000
0001
0000
0000
0000
0000
0010
0000
0000
0000
0100
0000
0000
0000
0000
1000
0000
0000
0000
,
0000
0000
0000
0000
0000
0000
0000
0000
0000
0000
0000
0000
0000
0000
1000
0000
0000
0000
0100
0000
0000
0000
0000
0001
0000
0000
0010
0000
0000
0100
0000
0000
1000
0000
0000
0000
0000
0000
0000
0000
0000
1000
0000
0000
0100
0000
0000
0010
0000
0000
0001
0000
0000
0000
0100
0000
0000
0000
0000
0002
0000
0000
0000
0010
0000
0000
0000
0000
0100
0000
0000
0000
1000
0000
0000
0000
0000
0100
0000
0000
0000
0010
0000
0000
0000
0000
0100
0000
0000
0000
1000
0000
0000
0000
0000
0100
0000
0000
0000
0010
0000
0000
0000
0000
0100
0000
0000
0000
1000
0000
0000
0000
0000
0100
0000
0000
0000
0010
0000
0000
0000
0000
0100
0000
0000
0000
1000
0000
0000
0000
0000
2000
0003
0000
0000
0100
0000
0000
0000
0000
0010
0000
0000
0000
0001
0000
0000
0000
0000
0010
0000
0000
0000
0100
0000
0000
0000
0000
0010
0000
0000
0000
0001
0000
0000
0000
0000
0010
0000
0000
0000
0100
0000
0000
0000
0000
0010
0000
0000
0000
0001
0000
0000
0000
0000
0010
0000
0000
0000
0100
0000
0000
,
0000
0000
0010
0000
0000
0000
0001
0000
0000
0000
0000
0200
3000
0000
0000
1000
0000
0000
0000
0000
0010
0000
0000
0000
0001
0000
0000
0000
0000
0010
0000
0000
0000
1000
0000
0000
0000
0000
0010
0000
0000
0000
0001
0000
0000
0000
0000
0010
0000
0000
0000
1000
0000
0000
0000
0000
0010
0000
0000
0000
0001
0000
0000
0000
0000
0010
0000
0000
0000
1000
0000
0000
0000
0000
0010
0000
0000
0000
0001
0000
0000
0000
0000
0020
0300
0000
0000
0001
0000
0000
0000
0000
0100
0000
0000
0000
1000
0000
0000
0000
0000
0100
0000
0000
0000
0001
0000
0000
0000
0000
0100
0000
0000
0000
1000
0000
0000
0000
0000
1030
0000
0000
0100
0000
0000
0010
0000
0000
0001
0000
0000
0010
0000
0000
0100
0000
0000
1000
0000
0000
0000
0100
0000
0000
0000
0000
0010
0000
0000
0000
0001
0000
0000
0000
0000
1100
0000
0000
0000
0000
0000
0000
0000
0000
0000
0000
0000
0000
0000
0000
0000
0000
0000
0000
0000
0000
0000
0000
0000
0000
0000
0000
0000
0000
0000
0000
0000
0000
0000
0000
0000
0110
,
0000
0000
0000
0000
0000
0000
0000
0000
0000
0000
0000
0000
0000
0000
0000
0000
0000
1001
0000
0000
0000
0000
0000
0000
0000
0000
0000
0000
0000
0000
0000
0000
0000
0000
0000
0110
0000
0000
0000
0000
0000
0000
0000
0000
0000
0000
0000
0000
0000
0000
0000
0000
0000
0000
0000
0000
0000
0000
0000
0000
0000
0000
0000
0000
0000
0000
0000
0000
0000
0000
0000
1010
0000
0000
0000
0000
0000
0000
0000
0000
0000
0000
0000
0000
0000
0000
0000
0000
0000
0101
0000
0000
0000
0000
0000
0000
0000
0000
0000
0000
0000
0000
0000
0000
0000
0000
0000
1001
0000
0000
0000
0000
0000
0000
0000
0000
0000
0000
0000
0000
0000
0000
0000
0000
0000
0000
0000
0000
0000
0000
0000
0000
0000
0000
0000
0000
0000
0000
0000
0000
0000
0000
0000
1100
0000
0000
0000
0000
0000
0000
0000
0000
0000
0000
0000
0000
0000
0000
0000
0000
0000
0011
0000
0000
0000
0000
0000
0000
0000
0000
0000
0000
0000
0000
0000
0000
0000
0000
0000
0110
0000
0000
0000
0000
0000
0000
0000
0000
0000
0000
0000
0000
,
0000
0000
0000
0000
0000
0000
0000
0000
0000
0000
0000
0000
0000
0000
0000
0000
0000
0000
0000
0000
0000
0000
0000
1001
0000
0000
0000
0000
0000
0000
0000
0000
0000
0000
0000
0000
0000
0000
0000
0000
0000
0000
0000
0000
0000
0000
0000
0000
0000
0000
0000
0000
0000
0000
0000
0000
0000
0000
0000
0110
0000
0000
0000
0000
0000
0000
0000
0000
0000
0000
0000
0000
0000
0000
0000
0000
0000
0000
0000
0000
0000
0000
0000
0000
0000
0000
0000
0000
0000
0000
0000
0000
0000
0000
0000
1010
0000
0000
0000
0000
0000
0000
0000
0000
0000
0000
0000
0000
0000
0000
0000
0000
0000
0101
0000
0000
0000
0000
0000
0000
0000
0000
0000
0000
0000
0000
0000
0000
0000
0000
0000
0110
0000
0000
0000
0000
0000
0000
0000
0000
0000
0000
0000
0000
0000
0000
0000
0000
0000
0000
0000
0000
0000
0000
0000
0000
0000
0000
0000
0000
0000
0000
0000
0000
0000
0000
0000
1100
0000
0000
0000
0000
0000
0000
0000
0000
0000
0000
0000
0000
0000
0000
0000
0000
0000
0011
0000
0000
0000
0000
0000
0000
,
0000
0000
0000
0000
0000
0000
0000
0000
0000
0000
0000
0110
0000
0000
0000
0000
0000
0000
0000
0000
0000
0000
0000
0000
0000
0000
0000
0000
0000
0000
0000
0000
0000
0000
0000
0000
0000
0000
0000
0000
0000
0000
0000
0000
0000
0000
0000
0101
0000
0000
0000
0000
0000
0000
0000
0000
0000
0000
0000
0000
0000
0000
0000
0000
0000
1010
0000
0000
0000
0000
0000
0000
0000
0000
0000
0000
0000
0000
0000
0000
0000
0000
0000
1001
0000
0000
0000
0000
0000
0000
0000
0000
0000
0000
0000
0000
0000
0000
0000
0000
0000
0000
0000
0000
0000
0000
0000
0000
0000
0000
0000
0000
0000
0000
0000
0000
0000
0000
0000
0110
0000
0000
0000
0000
0000
0000
0000
0000
0000
0000
0000
0000
0000
0000
0000
0000
0000
0000
0000
0000
0000
0000
0000
0000
0000
0000
0000
0000
0000
0000
0000
0000
0000
0000
0000
2222
0000
0000
0000
0000
0000
0000
0000
0000
0000
0000
0000
0000
0000
0000
0000
0000
0000
0000
0000
0000
0000
0000
0000
0000
0000
0000
0000
0000
0000
0000
0000
0000
0000
0000
0000
0000
,
0000
0000
0000
0000
0000
0000
0000
0000
0000
3333
0000
0000
0000
0000
0000
0000
;

//---------------dance-single - OMG----------------
#NOTES:
     dance-single:
     OMG:
     Edit:
     50:
     1.000,1.000,1.000,1.000,1.000,3880.000,2402.000,339.000,0.000,1146.000:
3303
0000
0000
0000
1111
0000
0000
0000
0000
0111
0000
0000
0000
1111
0000
0000
0000
0000
1110
0000
0000
0000
1111
0000
0000
0000
0000
1101
0000
0000
0000
1111
0000
0000
0000
0000
0111
0000
0000
0000
1111
0000
0000
0000
0000
1101
0000
0000
0000
1111
0000
0000
0000
0000
1011
0000
0000
0000
1111
0000
0000
0000
0000
1101
0000
0000
0000
1111
0000
0000
0000
0000
3333
0000
0000
0000
1111
0000
0000
0000
0000
0111
0000
0000
0000
1111
0000
0000
0000
0000
1110
0000
0000
0000
1111
0000
0000
0000
0000
0111
0000
0000
0000
1111
0000
0000
0000
0000
3333
0000
0000
0000
1111
0000
0000
0000
0000
1011
0000
0000
0000
1111
0000
0000
0000
0000
1110
0000
0000
0000
1111
0000
0000
0000
0000
0111
0000
0000
0000
1111
0000
0000
0000
0000
3333
0000
0000
0000
1111
0000
0000
0000
0000
1101
0000
0000
0000
1111
0000
0000
0000
0000
1110
0000
0000
0000
1111
0000
0000
0000
0000
1011
0000
0000
0000
1111
0000
0000
0000
0000
0111
0000
0000
0000
1111
0000
0000
0000
0000
1101
0000
0000
,
0000
1111
0000
0000
0000
0000
1110
0000
0000
0000
1111
0000
0000
0000
0000
0111
0000
0000
0000
1111
0000
0000
0000
0000
3333
0000
0000
0000
1111
0000
0000
0000
0000
1011
0000
0000
0000
1111
0000
0000
0000
0000
1110
0000
0000
0000
1111
0000
1101
0000
0000
1111
0000
2222
3333
1111
0000
1011
0000
0000
1111
0000
1101
0000
1111
0000
0111
0000
0000
1111
0000
2222
3333
1111
0000
1110
0000
0000
1111
0000
1011
0000
1111
0000
1101
0000
0000
1111
0000
0111
0000
1111
0000
1011
0000
0000
1111
0000
1101
0000
1111
0000
1110
0000
0000
1111
0000
2222
3333
1111
0000
0111
0000
0000
1111
0000
1110
0000
1111
0000
1101
0000
0000
1111
0000
2222
3333
1111
0000
1110
0000
0000
1111
0000
0111
0000
1111
0000
1011
0000
0000
1111
0000
2222
3333
1111
0000
1011
0000
0000
1111
0000
1101
0000
1111
0000
0111
0000
0000
1111
0000
1011
0000
1111
0000
1110
0000
0000
1111
0000
2222
3333
1111
0000
2222
3333
0000
1111
0000
2222
3333
1111
0000
1101
0000
0000
1111
0000
1011
0000
1111
0000
,
1110
0000
0000
1111
0000
1101
0000
1111
0000
0111
0000
0000
1111
0000
1110
0000
1111
0000
1011
0000
0000
1111
0000
2222
3333
1111
0000
1101
0000
0000
1111
0000
0111
0000
1111
0000
1110
0000
0000
1111
0000
1011
0000
1111
0000
1110
0000
0000
1111
0000
0111
0000
1111
0000
1011
0000
0000
1111
0000
2222
3333
1111
0000
1101
0000
0000
1111
0000
1110
0000
1111
0000
1011
0000
0000
1111
0000
2222
3333
1111
0000
1101
0000
0000
1111
0000
0111
0000
1111
0000
1110
0000
0000
1111
0000
2222
3333
1111
0000
1011
0000
0000
1111
0000
1110
0000
1111
0000
1101
0000
0000
1111
0000
1011
0000
1111
0000
0111
0000
0000
1111
0000
1011
0000
1111
0000
1101
0000
0000
1111
0000
2222
3333
1111
0000
1110
0000
0000
1111
0000
1011
0000
1111
0000
1101
0000
0000
1111
0000
2222
3333
1111
0000
0111
0000
0000
1111
0000
1110
0000
1111
0000
1011
0000
0000
1111
0000
2222
3333
1111
0000
1101
0000
0000
1111
0000
1110
0000
1111
0000
0111
0000
0000
1111
0000
1101
0000
1111
0000
1011
0000
0000
,
1111
0000
1110
0000
1111
0000
1011
0000
0000
1111
0000
2222
3333
1111
0000
1101
0000
0000
1111
0000
0111
0000
1111
0000
1110
0000
0000
1111
0000
2222
3333
1111
0000
1101
0000
0000
1111
0000
1011
0000
1111
0000
1110
0000
0000
1111
0000
2222
3333
1111
0000
0111
0000
0000
1111
0000
1110
0000
1111
0000
1101
0000
0000
1111
0000
0111
0000
1111
0000
1011
0000
0000
1111
0000
1110
0000
1111
0000
0111
0000
0000
1111
0000
2222
3333
1111
0000
1101
0000
0000
1111
0000
1011
0000
1111
0000
1101
0000
0000
1111
0000
1011
0000
1111
0000
0111
0000
0000
1111
0000
1110
0111
1110
0000
1111
0000
0111
1110
0111
2222
3333
1000
0001
1010
0000
0100
1001
0000
1111
0001
1000
0100
1010
0000
0001
1100
0000
0111
0001
1000
0100
1010
0000
0001
1100
0000
1111
0001
1000
0100
1010
0000
0001
0110
0000
1101
1000
0010
0100
0101
0000
1000
0110
0000
1111
0100
0010
1000
0101
0000
0100
1010
0000
1101
1000
0010
0100
0101
0000
1000
0110
0000
1111
0100
0010
1000
0101
0000
0100
1010
0000
1101
,
0100
0001
0010
1001
0000
0100
0011
0000
1111
0010
0001
0100
1001
0000
0010
0101
0000
1110
0100
0001
0010
1001
0000
0100
0011
0000
1111
0010
0001
0100
1001
0000
0010
0101
0000
0111
0010
1000
0100
0110
0000
0001
1100
0000
1111
0100
1000
0001
0110
0000
0100
1001
0000
0111
0001
1000
0100
0110
0000
0001
1100
0000
1111
0100
1000
0010
1100
0000
0001
1010
0000
1110
0010
0001
1000
0101
0000
0010
0101
0000
1111
0100
0001
0010
0101
0000
1000
0011
0000
1110
0010
0001
1000
0101
0000
0010
1001
0000
1111
1000
0001
0010
0101
0000
1000
0011
0000
1110
0001
0010
1000
0110
0000
0001
0110
0000
1111
0100
0010
0001
0110
0000
1000
0110
0000
1101
0100
0010
1000
0110
0000
0001
0110
0000
1111
0100
0010
0001
0110
0000
1000
0110
0000
0111
0001
1000
0010
1100
0000
0001
1010
0000
1111
0010
1000
0001
1100
0000
0010
1001
0000
0111
0001
1000
0010
1100
0000
0001
1010
0000
1111
0010
1000
0001
1100
0000
0010
1001
0000
1011
0010
0100
0001
1100
0000
0010
0101
0000
1111
0001
0100
0010
,
1100
0000
0001
0110
0000
1011
0010
0100
0001
1100
0000
0010
0101
0000
1111
0001
0100
0010
1100
0000
0001
0101
0000
2222
3333
1000
0100
1010
0000
0001
1100
0000
1111
0001
1000
0100
1010
0000
0001
1100
0000
0111
0001
1000
0100
1010
0000
0001
1100
0000
1111
0001
1000
0100
1010
0000
0001
1010
0000
1011
0010
0100
0001
0110
0000
1000
0110
0000
1111
0010
0100
0001
0110
0000
1000
0110
0000
1011
0010
0100
0001
0110
0000
1000
0110
0000
1111
0010
0100
0001
0110
0000
1000
0110
0000
1101
0001
0010
1000
0110
0000
0001
1010
0000
1111
0001
0010
1000
0110
0000
0001
1010
0000
1101
0100
0010
0001
0110
0000
1000
0011
0000
1111
0100
0010
1000
0011
0000
0100
1010
0000
0111
0001
1000
0010
1001
0000
0100
1010
0000
1111
0010
1000
0100
1001
0000
0010
1100
0000
0111
0100
1000
0001
1010
0000
0100
1001
0000
1111
0010
1000
0100
1001
0000
0010
1100
0000
1111
0010
0001
0100
1010
0000
0001
0110
0000
1111
0001
1000
0100
0011
0000
1000
0101
0000
1111
1000
0010
0100
1001
0000
0010
,
1100
0000
1111
0010
0001
0100
1010
0000
0001
0110
0000
1101
0001
1000
0100
0011
0000
1000
0101
0000
1111
1000
0010
0100
1001
0000
0010
1100
0000
1110
0010
0001
0100
1010
0000
0001
0110
0000
1111
0001
1000
0100
0011
0000
1000
0011
0000
1011
1000
0100
0010
1001
0000
0100
1010
0000
1111
1000
0100
0010
1001
0000
0100
1010
0000
1101
0001
0010
0100
1001
0000
0010
0101
0000
1111
1000
0100
0010
1001
0000
0100
1010
0000
1011
0010
0001
1000
0110
0000
0001
1100
0000
1111
0001
1000
0010
0101
0000
1000
0011
0000
1101
0010
1000
0001
0110
0000
1000
0110
0000
1111
0100
0001
1000
0011
0000
1000
0101
0000
2222
3333
0000
0101
0110
0000
1001
1010
0000
0101
1001
0000
0110
1010
0000
0101
1001
0000
0110
1010
0000
0101
1001
0000
0110
1010
0000
0101
1001
0000
0110
1010
0000
0101
1001
0000
0110
1010
0000
0101
1001
0000
0110
1010
0000
0101
1001
0000
0110
1010
0000
0101
1001
0000
0110
1010
0000
0101
1001
0000
0110
1010
0000
0101
1001
0000
0110
1100
0000
0011
1001
0000
0110
,
0011
0000
0110
1100
0000
0110
0011
0000
0110
1100
0000
0110
0011
0000
0110
1100
0000
0110
0011
0000
0110
1100
0000
0110
0011
0000
0110
1100
0000
0110
0011
0000
0110
1100
0000
0110
0011
0000
0110
1100
0000
0110
0011
0000
0110
1100
0000
0110
0011
0000
0110
1100
0000
0110
0011
0000
0110
1100
0000
0110
0011
0000
0110
1100
0000
0110
0011
0000
0110
1100
0000
0110
0101
0000
1010
1001
0000
0110
0101
0000
1010
1001
0000
0110
0101
0000
1010
1001
0000
0110
0101
0000
1010
1001
0000
0110
0101
0000
1010
1001
0000
0110
0101
0000
1010
1001
0000
0110
0101
0000
1010
1001
0000
0110
0101
0000
1010
1001
0000
0110
0101
0000
1010
1001
0000
0110
0101
0000
1010
1001
0000
0110
0101
0000
1010
1001
0000
0110
0101
0000
1010
1001
0000
0110
1100
0000
0011
0110
0000
1100
0011
0000
0110
1100
0000
0011
0110
0000
1100
0011
0000
0110
1100
0000
0011
0110
0000
1100
0011
0000
0110
1100
0000
0011
0110
0000
1100
0011
0000
0110
0011
0000
1100
0110
0000
0011
1100
0000
0110
0011
0000
1100
,
0110
0000
0011
1100
0000
1111
0000
1111
0000
1111
0000
0000
1111
0000
1111
0000
1111
0000
1111
0000
0000
1111
0000
1111
1000
0100
0010
1011
0000
0010
1100
0000
0111
0100
1000
0010
1100
0000
0010
0101
0000
1110
0100
0001
1000
0011
0000
1000
0011
0000
1101
0001
0010
1000
0101
0000
1000
0110
0000
1011
0010
0100
1000
0011
0000
1000
0011
0000
1110
0010
0001
0100
0110
0000
0100
1001
0000
0111
0001
1000
0100
1010
0000
0100
0011
0000
1101
0001
0010
0100
1100
0000
0100
1010
0000
0111
0010
1000
0100
0110
0000
0100
1001
0000
1110
1000
0001
0010
0011
0000
0010
1100
0000
1011
1000
0100
0001
0011
0000
0001
0110
0000
1101
0100
0010
1000
0011
0000
1000
0110
0000
1011
0010
0100
1000
0011
0000
1000
0101
0000
1110
0100
0001
0010
0011
0000
0010
1001
0000
0111
0001
1000
0100
1100
0000
0100
1010
0000
1101
1000
0010
0100
0011
0000
0100
1001
0000
0111
0001
1000
0010
1100
0000
0010
0101
0000
1110
0100
0001
1000
0011
0000
1000
0110
0000
1011
0010
0100
0001
0011
0000
0001
,
1010
0000
1101
1000
0010
0100
1010
0000
0100
1001
0000
1110
1000
0001
0010
0011
0000
0010
1100
0000
0111
0100
1000
0001
1010
0000
0001
0110
0000
1101
0100
0010
1000
1001
0000
1000
0101
0000
1011
0001
0100
1000
0011
0000
1000
0011
0000
1101
0001
0010
0100
0110
0000
0100
1010
0000
0111
0010
1000
0100
1010
0000
0100
1001
0000
1110
1000
0001
0010
0011
0000
0010
0101
0000
1011
0001
0100
1000
1010
0000
1000
0110
0000
1111
0000
1111
0000
1111
0000
0000
1111
0000
1111
1111
0000
1111
1111
0000
1111
1111
0000
1111
1111
1111
0000
1111
0000
1111
1111
1111
1111
1111
1111
0000
1111
0000
1111
1111
1111
2222
3333
0000
0101
0101
0000
1010
1010
0000
1010
0110
0000
0110
0110
0000
1001
1001
0000
1001
0011
0000
0011
0011
0000
1100
1100
0000
1100
0110
0000
0110
0110
0000
1001
1001
0000
1001
0011
0000
0011
0011
0000
0110
0110
0000
0110
0011
0000
0011
0011
0000
1100
1100
0000
1100
0110
0000
0110
0110
0000
1001
1001
0000
1001
0101
0000
0101
0101
0000
1010
1010
0000
1010
,
0101
0000
0110
1001
0000
0110
0101
0000
1010
0101
0000
0110
1001
0000
0110
0101
0000
1010
0101
0000
0110
1001
0000
0110
0101
0000
1010
0101
0000
0110
1001
0000
0110
0101
0000
1010
0101
0000
0110
1001
0000
0110
0101
0000
1010
0101
0000
0110
1001
0000
0110
0101
0000
1010
0101
0000
0110
1001
0000
0110
0101
0000
1010
0101
0000
0110
1001
0000
0110
0101
0000
0011
0011
0000
0011
1100
0000
1100
1100
0000
0110
0110
0000
0110
1001
0000
1001
1001
0000
0101
0101
0000
0101
1010
0000
1010
1010
0000
0011
0011
0000
0011
1100
0000
1100
1100
0000
0101
0101
0000
0101
1010
0000
1010
1010
0000
1100
1100
0000
1100
0011
0000
0011
0011
0000
0101
0101
0000
0101
1010
0000
1010
1010
0000
0110
0110
0000
0110
1001
0000
1001
1001
0000
0101
1001
0000
1001
1010
0000
1001
1001
0000
0101
1000
0000
1001
1010
0000
1001
1001
0000
1010
1001
0000
1001
0101
0000
1001
1001
0000
1010
1001
0000
1001
0101
0000
1001
1001
0000
0110
1001
0000
1001
0110
0000
1001
1001
0000
1000
0110
1001
0100
,
1011
0100
0010
1101
0010
1001
0110
0001
1000
0110
0001
1000
0110
0001
1000
0100
0010
0000
1111
0000
1111
1111
1111
2222
0333
0100
0010
0101
0010
0001
0110
0001
0100
0011
0100
0010
0101
0010
0001
0110
0001
0100
0011
0100
0010
0101
0010
0001
0110
0001
0100
0011
0100
0010
0101
0010
0001
0110
0001
0100
0011
0100
0010
0101
0010
0001
0110
0001
0100
0011
0100
0010
0101
0010
0001
0110
0001
0100
0011
0100
0010
0101
0010
0001
0110
0001
0100
0011
0100
0010
0101
0010
0001
0110
0001
0222
3033
0001
1000
0011
1000
0010
1001
0010
0001
1010
0001
1000
0011
1000
0010
1001
0010
0001
1010
0001
1000
0011
1000
0010
1001
0010
0001
1010
0001
1000
0011
1000
0010
1001
0010
0001
1010
0001
1000
0011
1000
0010
1001
0010
0001
1010
0001
1000
0011
1000
0010
1001
0010
0001
1010
0001
1000
0011
1000
0010
1001
0010
0001
1010
0001
1000
0011
1000
0010
1001
0010
2022
3303
1000
0001
1100
0001
0100
1001
0100
1000
0101
1000
0001
1100
0001
0100
1001
0100
1000
0101
1000
0001
1100
0001
0100
,
1001
0100
1000
0101
1000
0001
1100
0001
0100
1001
0100
1000
0101
1000
0001
1100
0001
0100
1001
0100
1000
0101
1000
0001
1100
0001
0100
1001
0100
1000
0101
1000
0001
1100
0001
0100
1001
0100
1000
0101
1000
0001
1100
0001
0100
1001
0100
2202
3330
0010
1000
0110
1000
0100
1010
0100
0010
1100
0010
1000
0110
1000
0100
1010
0100
0010
1100
0010
1000
0110
1000
0100
1010
0100
0010
1100
0010
1000
0110
1000
0100
1010
0100
1113
1111
1101
1110
1111
1101
1110
1111
1101
1110
1111
1101
1110
1111
1101
1110
1111
1101
0111
1111
1011
0111
1111
1011
0111
1111
1011
0111
1111
1011
0111
1111
1011
0111
1111
1011
1111
0100
0001
0010
1000
0000
0001
1100
0000
2222
3333
1000
0001
0010
0000
0100
1010
0000
1100
0010
0100
0001
1000
0000
0100
0011
0000
2222
3333
0001
0100
1000
0000
0001
1010
0000
0101
1000
0100
0001
0010
0000
0100
1001
0000
2222
3333
0010
0001
1000
0000
0100
0011
0000
1100
0001
0100
0010
1000
0000
0100
0011
0000
2222
3333
1000
0100
0010
0000
0001
1010
0000
0101
,
1000
0010
0001
0100
0000
1000
0011
0000
2222
3333
0100
0001
1000
0000
0100
0011
0000
1100
0001
0010
0100
1000
0000
0010
0101
0000
2222
3333
0001
0010
1000
0000
0001
0110
0000
0101
1000
0010
0100
0010
0000
0001
1100
0000
2222
3333
0010
0001
0100
0000
0010
1001
0000
1100
0001
0100
0010
0100
0000
1000
0011
0000
2222
3333
0100
0010
1000
0000
0001
1010
0000
0101
1000
0100
0010
1000
0000
0001
0110
0000
2222
3333
0001
1000
0010
0000
0001
0110
0000
1100
0010
1000
0001
0100
0000
1000
0011
0000
2222
3333
0100
0001
1000
0000
0100
0011
0000
0101
1000
0100
0010
0001
0000
0010
1100
0000
2222
3333
0001
0010
0100
0000
0001
1010
0000
1100
0001
1000
0100
0010
0000
1000
0101
0000
2222
3333
0100
0010
1000
0000
0100
1001
0000
0101
0010
0001
0100
1000
0000
0001
0110
0000
2222
3333
0001
0010
1000
0000
0001
0110
0000
1100
0001
1000
0100
0010
0000
0001
0110
0000
2222
3333
0001
1000
0100
0000
0001
1010
0000
0101
1000
0100
0010
1000
0000
0001
1010
0000
2222
3333
0001
0010
,
0100
0000
0010
1001
0000
1100
0010
0001
0100
1000
0100
0010
1101
0010
1001
0110
1001
0100
0011
0000
0100
1010
0000
1001
0100
0001
0010
0100
0000
0001
1010
0000
2222
3333
0100
0010
0100
0000
0001
1010
0000
1100
0010
0100
0001
1000
0000
0100
0011
0000
2222
3333
0010
0100
1000
0000
0010
1001
0000
0101
1000
0100
0010
1000
0000
0001
1010
0000
2222
3333
1000
0001
0100
0000
0010
0101
0000
1100
0001
1000
0010
0100
0000
0001
0110
0000
2222
3333
1000
0001
0010
0000
0001
1100
0000
0101
0010
0100
0001
1000
0000
0010
1001
0000
2222
3333
0100
1000
0010
0000
0100
0011
0000
1100
0001
0100
0010
1000
0000
0001
1010
0000
2222
3333
0010
0001
0100
0000
0010
1001
0000
0101
1000
0010
0001
1000
0000
0010
0101
0000
2222
3333
0001
1000
0010
0000
0001
0110
0000
1100
0001
1000
0100
0010
0000
1000
0011
0000
2222
3333
0100
0001
1000
0100
0010
1101
0010
1001
0110
1001
0100
0111
0000
0010
1001
0000
2222
3333
1000
0010
0100
0000
0001
1100
0000
0011
1000
0010
0100
0001
0000
0010
,
1100
0000
2222
3333
0100
0001
0010
0000
0100
1001
0000
1010
0100
0010
0001
0100
0000
1000
0101
0000
2222
3333
0001
1000
0100
0000
0001
1010
0000
0011
1000
0100
0001
0010
0000
1000
0011
0000
2222
3333
0100
1000
0010
0000
0001
1100
0000
1010
0001
1000
0010
0100
0000
1000
0011
0000
2222
3333
0100
1000
0010
0000
0100
1001
0000
0011
0100
1000
0001
0100
0000
0010
1001
0000
2222
3333
0100
0010
0100
0000
0001
0110
0000
1010
0001
0010
0000
1100
0000
0001
0010
0100
1000
0110
1001
0100
1011
0100
0010
1101
0010
1001
0110
0001
1000
0110
0001
1000
0110
0001
1000
0110
0001
0000
0110
0000
1000
0100
0010
0001
0110
1010
0100
0111
1000
0010
0101
0010
1010
0101
0110
1000
0111
0100
0010
1110
0001
0110
1010
0101
0100
1010
0100
0001
1110
0010
0101
0110
1010
0100
0111
1000
0010
0101
0010
1011
1100
0010
0001
1110
0000
0011
1001
0100
0101
1100
0010
0100
0011
0000
1100
0101
0010
1010
0101
0010
0100
1011
0000
0101
1001
0010
1100
0011
0100
0010
1100
0000
0101
0110
0010
1001
,
1010
0100
1000
0101
0000
1010
1001
0100
0110
1001
0100
0001
1010
0000
0110
1010
0001
1001
0110
0010
0001
1010
0000
0101
1001
0010
0110
1001
0010
1000
0101
0000
1010
1001
0001
0101
1010
0010
0001
1100
0000
1010
0101
0010
0011
1100
0001
1000
0011
0000
1100
0001
0010
1100
0101
0010
0100
1011
0000
1010
0101
0100
1010
1100
0001
0010
1101
0000
0011
1100
1000
1001
0101
1000
0100
1011
0000
0011
1100
0001
0110
0101
1000
0010
1101
0000
1001
0110
0010
1001
0101
1000
0010
1101
0000
1100
0011
1000
0110
1001
0100
0001
1110
0000
1001
0011
0100
1100
0011
1000
0001
1100
0000
0011
1100
0001
0101
1010
1000
0100
0011
0000
1010
0101
0100
1010
0101
0001
1000
0111
0000
1010
0101
1000
0011
0101
1000
0010
1100
0000
0110
1001
0010
0110
1001
0010
0100
1011
0000
1100
0011
0100
1001
0101
0010
1000
0111
0000
0011
1100
0010
0110
0101
1000
0010
1101
0000
0011
1100
0010
1001
1100
1000
0001
1110
0000
0101
1010
0100
0011
1100
0001
1000
0011
0000
1100
0011
0100
1010
0101
0001
0010
,
1100
0000
0101
1010
0001
0101
1100
0010
0001
1110
0000
0101
1010
0001
1100
0110
1000
0100
1011
0000
1100
0101
0010
1001
0101
1000
0010
1101
0000
0110
1001
0001
0110
0011
1000
0100
1011
0000
0101
1010
1000
1111
1111
0000
1111
1111
0000
1111
1111
0000
1111
1111
0000
1111
1111
0000
1111
1111
0000
2222
0333
0001
0100
0111
0000
0011
0100
0010
0011
0001
0010
0100
0011
0000
0011
0100
0010
0110
0100
0100
0001
0110
0000
0011
0001
0001
0110
0010
0100
0001
0110
0000
0101
0001
0001
0222
3330
0010
0100
0110
0000
1100
0100
0100
1010
0010
0010
0100
1010
0000
1100
0010
0100
1100
1000
0100
0010
1110
0000
1100
0100
0100
1010
0010
0010
0100
1010
0000
1100
0100
0100
2220
3033
0010
1000
1010
0000
1001
0010
1000
1010
0010
0010
0001
0011
0000
1001
0001
0001
1010
0010
0010
0001
1010
0000
1001
0001
0001
0011
1000
1000
0001
1011
0000
1001
0001
0001
2022
3303
0100
1000
0101
0000
1001
1000
1000
0101
0100
1000
0001
1100
0000
1001
0001
0001
1100
0100
0100
0001
1101
0000
0101
,
0001
0001
1100
0100
0100
0001
0101
0000
1001
0001
0001
2202
3333
0001
1100
0110
0000
0111
1000
0100
1010
1000
0010
0101
1000
0000
0111
0001
0001
1001
1000
0001
0110
1001
0000
1011
0010
1000
0101
0100
0001
1010
0101
0000
1101
0010
0100
1010
1000
0001
0110
1001
0000
0111
0010
1000
0110
0001
0010
1001
0110
0000
1110
0001
0010
0101
1000
0100
1010
0001
0000
0111
1000
0001
0110
0010
0100
1001
0110
0000
0111
1000
0100
1010
0001
1000
0101
0010
0000
1110
0001
1000
0110
0001
0010
1001
0110
0000
1110
0001
0010
0101
1000
0001
1010
0100
0000
1110
0001
0010
1100
0001
1000
0011
0100
0000
1110
0001
0010
1000
0110
1001
0100
1011
0100
0010
1001
0100
0010
1001
0100
0000
0011
0000
1000
0100
0010
1111
1111
1111
0000
1111
0000
1111
1111
1111
1111
1111
1111
0000
1111
0000
1111
1111
1111
2222
3333
0100
1000
0011
0000
1100
1010
0100
0011
1010
0100
1000
0011
0000
1100
0101
0010
1100
1001
0100
0010
1001
0000
0110
0101
1000
0101
1010
0001
1000
0110
0000
1001
0110
0001
1010
,
0101
1000
0010
0011
0000
0101
1010
0100
0011
1100
0010
0100
1001
0000
0101
1010
0001
1100
0011
0100
1000
0101
0000
0011
1100
0010
0101
1001
0010
0001
1100
0000
0101
0110
0001
1010
0101
1000
0010
0011
0000
0101
1010
0001
1100
1010
0100
0010
1001
0000
0101
1010
0100
0011
1100
0010
0001
0110
0000
0101
1010
0100
1010
1001
0100
0001
1010
0000
0101
0011
1000
0101
1010
0100
0010
1001
0000
0101
1010
0001
1100
0011
1000
0100
0011
0000
1001
0110
1000
0011
1100
0010
1000
0101
0000
0011
1100
0001
1010
0110
1000
0100
0011
0000
0101
1100
0010
0101
0011
1000
0001
0110
0000
0101
1010
0100
0011
1100
0001
0010
1100
0000
1010
0110
0001
1100
1010
0100
0010
1001
0000
0101
0110
1000
0101
0011
1000
0100
0101
0000
1010
0110
0001
1010
0101
1000
0001
0110
0000
0011
1010
0100
0011
1100
0010
0100
0101
0000
0011
1100
0010
1100
0011
1000
0010
0110
0000
0101
1001
0010
0101
1010
0001
0010
1100
0000
0101
0011
0100
1010
1100
0010
0100
1001
0000
0110
1001
0010
1100
0101
0010
1000
,
0110
0000
0011
1010
0100
0011
1001
0100
0001
1010
0000
0101
1010
0001
0110
1010
0100
1000
0011
0000
0101
0011
0100
1001
1010
0100
0001
1010
0000
0101
1010
0001
1111
1111
0000
1111
1111
0000
1111
1111
0000
1111
1111
1111
0000
1111
0000
1111
1111
1111
1111
1111
1111
1111
1111
1111
1111
1111
1111
1111
1001
0110
0000
1111
0000
1001
0110
1001
0110
1001
0110
0000
1111
0000
1001
0110
1001
0110
1001
0110
0000
1111
0000
1001
0110
1001
0110
1001
0110
0000
1111
0000
1001
0110
1001
1111
1010
0101
0000
1111
0000
1010
0101
1010
0101
1010
0101
0000
1111
0000
1010
0101
1010
0101
1010
0101
0000
1111
0000
1010
0101
1010
0101
1010
0101
0000
1111
0000
1010
0101
1010
1111
1100
0011
0000
1111
0000
1100
0011
1100
0011
1100
0011
0000
1111
0000
1100
0011
1100
0011
1100
0011
0000
1111
0000
1100
0011
1100
0011
1100
0011
0000
1111
0000
1100
0011
1100
1111
1001
0110
0000
1111
0000
1001
0110
1001
0110
1001
0110
0000
1111
0000
1001
0110
1001
0110
1001
0110
0000
1111
0000
1001
,
0110
1001
0110
1001
0110
0000
1111
0000
1001
0110
1001
1111
0001
0110
0001
1100
0000
0010
1011
0000
0111
1000
0101
0010
1001
0000
0100
1011
0000
1110
1000
0110
1000
0011
0000
0100
1101
0000
1101
0010
0101
0010
1100
0000
0001
1011
0000
1101
0001
0110
0001
1100
0000
0010
1011
0000
1011
0100
1010
0100
0011
0000
1000
1101
0000
0111
0010
0101
0010
1100
0000
0001
1011
0000
0111
0100
1010
0100
0011
0000
1000
1110
0000
1101
0010
0101
0010
0011
0000
0100
1110
0000
0111
0010
0101
0010
1100
0000
0001
1101
0000
1011
1000
0110
1000
0011
0000
0010
0111
0000
1110
1000
0101
1000
1100
0000
0001
0111
0000
1111
1111
1111
0000
1111
0000
1111
1111
1111
1111
1111
1111
0000
1111
0000
1111
1111
1111
1010
1111
1111
0101
1111
0101
1010
1111
1010
1111
1111
1111
0101
1111
0101
1010
1111
1010
1111
1010
1010
0000
1111
0000
0101
0101
0101
0110
0110
0110
0000
1111
0000
1001
1001
1001
0101
0101
0101
0000
1111
0000
1010
1010
1010
0011
0011
0011
0000
1111
0000
1100
1100
1100
0011
,
0011
0011
0000
0111
0000
0110
0110
0110
1001
1001
1001
0000
1101
0000
0101
0101
0101
1010
1010
1010
0000
1111
0000
0101
0101
0101
0110
0110
0110
0000
1111
0000
1001
1001
1001
1100
1100
0101
0000
1111
0000
1010
0011
0011
1100
1100
0101
0000
1111
0000
1010
0011
0011
1100
1100
0101
0000
1111
0000
1010
0011
0011
1100
1100
0101
0000
1111
0000
1010
0011
0011
1100
1100
0101
0000
1111
0000
1010
0011
0011
1100
1100
0101
0000
1111
0000
1010
0011
0011
1100
1100
0101
0000
1111
0000
1010
0011
0011
1100
1100
0101
0000
1111
0000
1010
0011
0011
1100
1100
1100
0000
1110
0000
0110
0110
0110
1001
1001
1001
0000
1101
0000
0101
0101
0101
1010
1010
1010
0000
1110
0000
0110
0110
0110
1001
1001
1001
0000
1111
0000
0110
0110
0110
0101
0101
0101
0000
1111
0000
1010
1010
1010
0110
0110
0110
0000
1111
0000
1001
1001
1001
0101
0101
0101
0000
0111
0000
0110
0110
0110
1010
1010
1010
0000
1111
0000
0101
0101
0101
1010
1010
0101
0000
0111
0000
0110
1001
1001
1010
1010
0101
0000
,
0111
0000
0110
1001
1001
1010
1010
0101
0000
0111
0000
0110
1001
1001
1010
1010
0101
0000
0111
0000
0110
1001
1001
1010
1010
0101
0000
0111
0000
0110
1001
1001
0001
0110
1001
0010
1101
0010
0100
1011
0100
1001
0110
1000
0001
0110
1000
0001
0110
0000
1111
1111
1111
0000
1111
0000
1111
1111
1111
2222
3330
0100
1000
0110
1000
0100
1010
0100
0010
1100
0010
0100
1010
0100
1000
0110
1000
0100
1010
0100
0010
1100
0010
0100
1010
0100
1000
0110
1000
0100
1010
0100
0010
1100
0010
0100
1010
0100
1000
0110
1000
0100
1010
0100
0010
1100
0010
0100
1010
0100
1000
0110
1000
0100
1010
0100
0010
1100
0010
0100
1010
0100
1000
0110
1000
0100
1010
0100
0010
1100
0010
2220
0333
0010
0001
0110
0001
0010
0101
0010
0100
0011
0100
0010
0101
0010
0001
0110
0001
0010
0101
0010
0100
0011
0100
0010
0101
0010
0001
0110
0001
0010
0101
0010
0100
0011
0100
0010
0101
0010
0001
0110
0001
0010
0101
0010
0100
0011
0100
0010
0101
0010
0001
0110
0001
0010
0101
0010
0100
0011
0100
0010
,
0101
0010
0001
0110
0001
0010
0101
0010
0100
0011
0000
0222
3303
1000
0100
1001
0100
0001
1100
0001
0100
1001
0100
1000
0101
1000
0100
1001
0100
0001
1100
0001
0100
1001
0100
1000
0101
1000
0100
1001
0100
0001
1100
0001
0100
1001
0100
1001
0101
1000
0100
1001
0100
0001
1100
0001
0100
1001
0100
1000
0101
1000
0100
1001
0100
0001
1100
0001
0100
1001
0100
1000
0101
1000
0100
1001
0100
0001
1100
0001
0100
1001
0100
2202
3033
0001
0010
1001
0010
1000
0011
1000
0010
1001
0010
0001
1010
0001
0010
1001
0010
1000
0011
1000
0010
1001
0010
0001
1010
0001
0010
1001
0010
1000
0011
1000
0010
1001
0310
1100
1111
0011
1100
1111
0011
1100
1111
0011
1100
1111
0011
1100
1111
0011
1100
1111
0011
1110
1111
1111
0111
1111
0111
1110
1111
1110
1111
1111
1111
0111
1111
0111
1110
1111
1110
2222
3333
1111
0000
1111
0000
0000
1111
0000
1111
0000
1111
0000
1111
0000
0000
1111
0000
1111
0000
1111
0000
1111
0000
0000
1111
0000
1111
0000
1111
0000
1111
0000
0000
1111
0000
1111
,
0000
1111
0000
1111
0000
0000
1111
0000
1111
0000
1111
0000
1111
0000
0000
1111
0000
1111
0000
1111
0000
1111
0000
0000
1111
0000
1111
0000
1111
0000
1111
0000
0000
1111
0000
1111
0000
1111
0000
1111
0000
0000
1111
0000
1111
0000
1111
0000
1111
0000
0000
1111
0000
1111
0000
1111
0000
1111
0000
0000
1111
0000
1111
0000
1111
0000
1111
0000
0000
1111
0000
1111
0000
1111
0000
1111
0000
0000
1111
0000
1111
0000
1111
0000
1111
0000
0000
1111
0000
1111
0000
1111
0000
1111
0000
0000
1111
0000
1111
0000
1111
0000
1111
0000
0000
1111
0000
1110
0000
1111
0000
1101
0000
0000
1111
0000
1011
0000
1111
0000
0111
0000
0000
1111
0000
1110
0000
1111
0000
0111
0000
0000
1111
0000
1101
0000
1111
0000
1011
0000
0000
1111
0000
0111
0000
1111
0000
1011
0000
0000
1111
0000
1101
0000
1111
0000
1110
0000
0000
1111
0000
0111
0000
1111
0000
1110
0000
0000
1111
0000
1011
0000
1111
0000
1101
0000
0000
1111
0000
1011
0000
1111
0000
1110
0000
0000
1111
0000
0111
0000
1111
0000
,
1101
0000
0000
1111
0000
1011
0000
1111
0000
1101
0000
0000
1111
0000
1110
0000
1111
0000
0111
0000
0000
1111
0000
1101
0000
1111
0000
0111
0000
0000
1111
0000
1110
0000
1111
0000
1011
0000
0000
1111
0000
1101
0000
1111
0000
1011
0000
0000
1111
0000
0111
0000
1111
0000
1110
0000
0000
1111
0000
1100
0000
1111
0000
0110
0000
0000
1111
0000
0011
0000
1111
0000
0110
0000
0000
1111
0000
1010
0000
1111
0000
1001
0000
0000
1111
0000
0101
0000
1111
0000
1001
0000
0000
1111
0000
0011
0000
1111
0000
0110
0000
0000
1111
0000
1100
0000
1111
0000
0110
0000
0000
1111
0000
0101
0000
1111
0000
1001
0000
0000
1111
0000
1010
0000
1111
0000
1001
0000
0000
1111
0000
1010
0000
1111
0000
1001
0000
0000
1111
0000
0101
0000
1111
0000
1001
0000
0000
1111
0000
0011
0000
1111
0000
0110
0000
0000
1111
0000
1100
0000
1111
0000
0110
0000
0000
1111
0000
0101
0000
1111
0000
1001
0000
0000
1111
0000
1010
0000
1111
0000
1001
0000
0000
1111
0000
1100
0000
1111
0000
0110
0000
0000
,
1111
0000
0011
0000
1111
0000
0110
0000
0000
1111
0000
0001
0000
1111
0000
0010
0000
0000
1111
0000
0100
0000
1111
0000
1000
0000
0000
1111
0000
0001
0000
1111
0000
1000
0000
0000
1111
0000
0010
0000
1111
0000
0100
0000
0000
1111
0000
1000
0000
1111
0000
0100
0000
0000
1111
0000
0010
0000
1111
0000
0001
0000
0000
1111
0000
1000
0000
1111
0000
0001
0000
0000
1111
0000
0100
0000
1111
0000
0010
0000
0000
1111
0000
0100
0000
1111
0000
0001
0000
0000
1111
0000
1000
0000
1111
0000
0010
0000
0000
1111
0000
0100
0000
1111
0000
0010
0000
0000
1111
0000
0001
0000
1111
0000
1000
0000
0000
1111
0000
0010
0000
1111
0000
1000
0000
0000
1111
0000
0001
0000
1111
0000
0100
0000
0000
1111
0000
0010
0000
1111
0000
0100
0000
0000
1111
0000
1000
0000
1111
0000
0001
0000
0000
1111
0000
2111
0200
0020
0000
3002
0030
0020
0303
0002
2000
0200
0030
0003
3002
0030
0020
0303
0002
2000
0200
0030
0003
3002
0030
0020
0303
0002
2000
0200
0030
0003
3002
0030
0020
0303
0002
2000
,
0200
0030
0003
3002
0030
0020
0303
0002
2000
0200
0030
0003
3002
0030
0020
0303
0002
2000
0200
0030
0003
3002
0030
0020
0303
0002
2000
0200
0030
0000
3000
0030
0020
0303
0002
2000
0200
0030
0003
3002
0030
0020
0303
0002
2000
0200
0030
0003
3002
0030
0020
0303
0002
2000
0200
0030
0003
3002
0030
0020
0303
0002
2000
0200
0030
0003
3002
0030
0020
0303
0002
2000
0200
0030
0003
3002
0030
0020
0303
0002
2000
0200
0030
0003
3002
0030
0020
0303
0002
2000
0200
0030
0003
3002
0030
0020
0303
0002
2000
0200
0030
0000
3000
0030
0020
0303
0002
2230
3333
0000
0000
0000
0000
0000
0000
0000
0000
0000
0000
0000
0000
0000
0000
0000
0000
0000
0000
0000
0000
0000
0000
0000
0000
0000
0000
0000
0000
0000
0000
0000
0000
0000
0000
0000
0000
0000
0000
0000
0000
0000
0000
0000
0000
0000
0000
0000
0000
0000
0000
0000
0000
0000
0000
0000
0000
0000
0000
0000
0000
0000
0000
0000
0000
0000
0000
0000
0000
0000
0000
0000
0000
0000
0000
0000
0000
0000
0000
0000
0000
0000
0000
0000
;
